WWE SmackDown 17 07 2020 HDTV Online

Watch WWESmackDown 2020 07 17 720p WEB HEEL DX-TV

 

WWE Online

 wwe Online
 

 

WWE SmackDown 17 07 2020 HDTV Online

 

 

 

Complete name : WWE.Smackdown.2020.07.17.HDTV.x264-Star.mp4
Format : MPEG-4
Format profile : Base Media
Codec ID : mp42
File size : 1.03 GiB
WWE Online : 1 h 27 min
Overall bit rate : 1 674 kb/s

 SmackDown 17 07 2020 HDTV Online

Video
ID : 1
Format : AVC
Duration : 1 h 27 min
Bit rate : 1 500 kb/s
Width : 720 pixels
Height : 480 pixels
Display aspect ratio : 16:9
WWE Online rat : 16:9
Frame rate mode : Variable
Frame rate : 59.940 (60000/1001) FPS
Minimum frame rate : 59.920 FPS
Maximum frame rate : 59.960 FPS
Color space : YUV
Chroma subsampling : 4:2:0
Bit depth : 8 bits
Scan type : Progressive
Bits/(Pixel*Frame) : 0.072
Stream size : 940 MiB (89%)
Color range : Limited
Color primaries : BT.601 NTSC
Transfer WWE Online : BT.709
Matrix coefficients : BT.601
Codec configuration box : avcC

SmackDown 17 07 2020 HDTV Online

Audio
ID : 2
Format : AAC LC
Format/Info : WWE Online
Codec ID : mp4a-40-2
Duration : 1 h 27 min
Bit rate mode : Constant
Bit rate : 159 kb/s
Channel(s) : 2 channels
Channel layout : L R
Sampling rate : 48.0 kHz
Frame rate : 46.875 FPS (1024 SPF)
WWE Online : Lossy
Stream size : 100.0 MiB (10%)
Title : Stereo
Default : Yes
Alternate group : 1

 

AJ Styles and Matt Riddle set for Intercontinental Championship clash

When the championship match up was revealed to Styles during an interview with Sarah Schrieffer,

the titleholder promised things would be different for the neophyte with no other distractions at play.

Are Friday nights about to become “The Bro Show,” or will the Intercontinental Champion extend his Phenomenal reign?

Tune in to Friday Night WWE SmackDown on FOX at 8/7 C to see who leaves with the title!

 

WWE SmackDown 17 07 2020 HDTV Online

 

 

 

Watch online

 

 

Server 1

 

 

 

 

watch now

 

 

 

 

Server 2

 

 

 

watch now

 

 

 

Server-3

 

 

 

watch now

 

 

Uploaded By Site DX-TV.com

 

 

 

Download with premium account Links 

 

 

Keep2Share

 

 

nitroflare.com

 

 

rapidgator.net

 

 

uploadgig.com

 

 

 

dx-tv.com

 

urlfree.net

 171 total views,  5 views today

Leave a Reply

Your email address will not be published. Required fields are marked *

This site uses Akismet to reduce spam. Learn how your comment data is processed.

%d bloggers like this: