WWE Raw Free 720p 2020 12 28 HDTV H264 DX-TV

WWE Raw Free 720p 2020 12 28 HDTV H264 DX-TV

WWE Raw Free 720p

 WWE Raw Free 720p

 

Download Links with premium High Speed   

 

nitroflare.com

http://shrt10.com/Wvqe9
http://shrt10.com/06pM7fBWk

 

 

rapidgator.net

http://shrt10.com/Eac3xfJ4
http://shrt10.com/ieHrnv

 

 

uploaded.net

http://shrt10.com/yEAlOw
http://shrt10.com/kPvHB

 

 

uploadgig.com

http://shrt10.com/xQqNJDCwj
http://shrt10.com/PQLVL

 

Watch online

 

Server 1

 

 

 

 

WWE Raw Free 720p

 

 

 

 

Server-2

 

 

 

 

watch now

 

 

Uploaded By Site DX-TV.com

 

 

Complete name : WWE.Monday.Night.Raw.2020.12.28.HDTV.H264 DX-TV.mp4
Format : MPEG-4
Format profile : Base Media / Version 2
Codec ID : mp42 (isom/iso2/avc1/mp41)
File size : 2.10 GiB
Duration : 2 h 41 min
Overall bit rate : 1 865 kb/s

WWE Raw Free 720p

Video
ID : 1
Format : AVC
Duration : 2 h 41 min
Bit rate : 1 695 kb/s
Width : 720 pixels
Height : 480 pixels
Display aspect ratio : 16:9
Frame rate mode : Variable
Frame rate : 30.000 FPS
Minimum frame rate : 18.293 FPS
Maximum frame rate : 30.000 FPS
Color space : YUV
Chroma subsampling : 4:2:0
Bit depth : 8 bits
Scan type : Progressive
Bits/(Pixel*Frame) : 0.164
Stream size : 1.91 GiB (91%)
Color range : Limited
Color primaries : BT.709
Transfer characteristics : BT.709
Matrix coefficients : BT.709
Codec configuration box : avc

WWE Raw Free 720p

Audio
ID : 2
Format : AAC LC
Format/Info : Advanced Audio
Codec ID : mp4a-40-2
Duration : 2 h 41 min
Bit rate mode : Constant
Bit rate : 161 kb/s
Channel(s) : 2 channels
Channel layout : L R
Sampling rate : 48.0 kHz
Frame rate : 46.875 FPS (1024 SPF)
Compression mode : Lossy
Stream size : 186 MiB (9%)
Title : Stereo
Language : English
Default : Yes
Alternate group : 1

Complete name : WWE.Monday.Night.Raw.2020.12.28.720p.HDTV.H264 DX-TV.mp4
Format : MPEG-4
Format profile : Base Media
Codec ID : mp42
File size : 4.08 GiB
Duration : 2 h 41 min
Overall bit rate : 3 625 kb/s

WWE Raw Free  

Video
ID : 1
Format : AVC
Duration : 2 h 41 min
Bit rate : 3 453 kb/s
Width : 1 280 pixels
Height : 720 pixels
Display aspect ratio : 16:9
Frame rate mode : Constant
Frame rate : 30.000 FPS
Color space : YUV
Chroma subsampling : 4:2:0
Bit depth : 8 bits
Scan type : Progressive
Bits/(Pixel*Frame) : 0.125
Stream size : 3.89 GiB (95%)
Color range : Limited
Color primaries : BT.709
Transfer characteristics : BT.709
Matrix coefficients : BT.709
Codec configuration box : avc

WWE Raw Free 720p

Audio
ID : 2
Format : AAC LC
Format/Info : Advanced Audio
Codec ID : mp4a-40-2
Duration : 2 h 41 min
Bit rate mode : Constant
Bit rate : 161 kb/s
Channel(s) : 2 channels
Channel layout : L R
Sampling rate : 48.0 kHz
Frame rate : 46.875 FPS (1024 SPF)
Compression mode : Lossy
Stream size : 186 MiB (4%)
Title : Stereo
Language : English
Default : Yes
Alternate group : 1

 

 

https://dx-tv.com/

Leave a Reply

Your email address will not be published. Required fields are marked *

This site uses Akismet to reduce spam. Learn how your comment data is processed.