Watch Wrestling AEW DARK 29 Dec 2020 1080p DX-TV

AEW Dark 2019

Watch Wrestling AEW DARK 29 Dec 2020 1080p DX-TV

Watch Wrestling AEW DARK

 WWE RAW

 

Download Links with premium High Speed   

 

 

dropapk.to

http://shrt10.com/GPWrm2

 

 

nitroflare.com

http://shrt10.com/gmbOSaWMO

 

 

rapidgator.net

http://shrt10.com/o15eKB

 

 

uploaded.net

http://shrt10.com/yPM7krAN

 

 

uploadgig.com

http://shrt10.com/8aG8Xw

 

Watch Wrestling AEW online

 

Server 1

 

 

 

 

Watch Wrestling AEW DARK

 

 

 

 

Server-2

 

 

 

 

watch now

 

 

Uploaded By Site DX-TV.com

 

 

Complete name : AEW.DARK.29th.Dec.2020.1080p.WEBRip.h264-TJ.mp4
Format : MPEG-4
Format profile : Base Media
Codec ID : isom
File size : 3.72 GiB
Duration : 2 h 5 min
Overall bit rate : 4 248 kb/s
Writing application : Lavf57.83.100

Watch Wrestling AEW DARK

Video
ID : 1
Format : AVC
Duration : 2 h 5 min
Bit rate : 4 112 kb/s
Width : 1 920 pixels
Height : 1 080 pixels
aspect ratio : 16:9
Frame rate mode : Constant
Frame rate : 29.970 (30000/1001) FPS
Color space : YUV
Chroma subsampling : 4:2:0
Bit depth : 8 bits
Scan type : Progressive
Bits/(Pixel*Frame) : 0.066
Stream size : 3.60 GiB (97%)
Color range : Limited
Color primaries : BT.709
Transfer characteristics : BT.709
Matrix coefficients : BT.709
Codec configuration box : avc

Watch Wrestling AEW DARK

Audio
ID : 2
Format : AAC LC
Format/Info : Advanced Audio
Codec ID : mp4a-40-2
Duration : 2 h 5 min
Duration_LastFrame : 1 ms
Bit rate mode : Constant
Bit rate : 128 kb/s
Channel(s) : 2 channels
Channel layout : L R
Sampling rate : 44.1 kHz
Frame rate : 43.066 FPS (1024 SPF)
Compression mode : Lossy
Stream size : 115 MiB (3%)
Language : English
Default : Yes
Alternate group : 1

Watch Wrestling AEW  

Format : AVC
Duration : 2 h 5 min
Bit rate : 4 112 kb/s
Width : 1 920 pixels
Height : 1 080 pixels
aspect ratio : 16:9
Frame rate mode : Constant
Frame rate : 29.970 (30000/1001) FPS
Color space : YUV
Chroma subsampling : 4:2:0
Bit depth : 8 bits
Scan type : Progressive
Bits/(Pixel*Frame) : 0.066
Stream size : 3.60 GiB (97%)
Color range : Limited
Color primaries : BT.709
Transfer characteristics : BT.709
Matrix coefficients : BT.709
Codec configuration box : avc

Watch Wrestling  

Audio
ID : 2
Format : AAC LC
Format/Info : Advanced Audio
Codec ID : mp4a-40-2
Duration : 2 h 5 min
Duration_LastFrame : 1 ms
Bit rate mode : Constant
Bit rate : 128 kb/s
Channel(s) : 2 channels
Channel layout : L R
Sampling rate : 44.1 kHz
Frame rate : 43.066 FPS (1024 SPF)
Compression mode : Lossy
Stream size : 115 MiB (3%)
Language : English
Default : Yes
Alternate group : 1

Watch Wrestling AEW  

https://dx-tv.com/

You May Also Like

Leave a Reply

Your email address will not be published. Required fields are marked *

This site uses Akismet to reduce spam. Learn how your comment data is processed.