Free WWE Raw Online 2020 12 28 720p DX-TV

Free WWE Raw Online 2020 12 28 720p HDTV Star DX-TV

Free WWE Raw Online

 WWE RAW

 

Download Links with premium High Speed   

 

 

nitroflare.com

http://shrt10.com/AGzSpCro

 

 

rapidgator.net

http://shrt10.com/o6KWfD

 

 

uploaded.net

http://shrt10.com/jXVAJMU9t

 

 

uploadgig.com

 

http://shrt10.com/R1ZiOY

 

 

Watch online

 

Server 1

 

 

 

 

Free WWE Raw Online

 

 

 

 

Server-2

 

 

 

 

watch now

 

 

Uploaded By Site DX-TV.com

 

 

 

Complete name : WWE.Monday.Night.Raw.2020.12.28.720p.HDTV.x264-Star.mkv
Format : Matroska
Format version : Version 4
File size : 3.79 GiB
Duration : 2 h 11 min
Overall bit rate : 4 119 kb/s
Writing library : Lavf58.29.100

Free WWE Raw Online

Video
ID : 1
Format : AVC
Duration : 2 h 11 min
Bit rate : 4 000 kb/s
Width : 1 280 pixels
Height : 720 pixels
Display aspect ratio : 16:9
Frame rate mode : Constant
Frame rate : 29.970 (30000/1001) FPS
Color space : YUV
Chroma subsampling : 4:2:0
Bit depth : 8 bits
Scan type : Progressive
Bits/(Pixel*Frame) : 0.145
Stream size : 3.57 GiB (94%)
Forced : No
Color range : Limited
Color primaries : BT.709
Transfer characteristics : BT.709
Matrix coefficients : BT.709

Free WWE Raw  

Audio
ID : 2
Format : AC-3
Format/Info : Audio Coding 3
Commercial name : Dolby Digital
Codec ID : A_AC3
Duration : 2 h 11 min
Bit rate mode : Constant
Bit rate : 160 kb/s
Channel(s) : 2 channels
Channel layout : L R
Sampling rate : 48.0 kHz
Frame rate : 31.250 FPS (1536 SPF)
Compression mode : Lossy
Delay relative to video : -5 ms
Stream size : 151 MiB (4%)
Title : Stereo
Service kind : Complete Main
Default : Yes
Forced : No

 WWE Raw Online

ID : 2
Format : AC-3
Format/Info : Audio Coding 3
Commercial name : Dolby Digital
Codec ID : A_AC3
Duration : 2 h 11 min
Bit rate mode : Constant
Bit rate : 160 kb/s
Channel(s) : 2 channels
Channel layout : L R
Sampling rate : 48.0 kHz
Frame rate : 31.250 FPS (1536 SPF)
Compression mode : Lossy
Delay relative to video : -5 ms
Stream size : 151 MiB (4%)
Title : Stereo
Service kind : Complete Main
Default : Yes
Forced : No

 WWE Raw

Channel layout : L R
Sampling rate : 48.0 kHz
Frame rate : 31.250 FPS (1536 SPF)
Compression mode : Lossy
Delay relative to video : -5 ms
Stream size : 151 MiB (4%)
Title : Stereo
Service kind : Complete Main
Default : Yes
Forced : No

https://dx-tv.com/

Leave a Reply

Your email address will not be published. Required fields are marked *

This site uses Akismet to reduce spam. Learn how your comment data is processed.