WWE RAW 2020 01 27 HDTV 1080p

WWE RAW 2020 01 27 HDTV 1080p DX-TV

 

 

WWE RAW

 

 

 

 

dx-tv.com

 

 

 

 

WWE RAW 2020 01 27 HDTV 1080p

 

 

 

 

 

Complete name : WWE.RAW.2020.01.27.1080p.HDTV.x264-Star.mkv
Format : Matroska
Format version : Version 4
File size : 10.3 GiB
Duration : 2 h 17 min
Overall bit rate : 10.7 Mb/s
Writing library : Lavf58.29.100
ErrorDetectionType : Per level 1

Video
ID : 1
Format : AVC
Duration : 2 h 17 min
Bit rate : 10.5 Mb/s
Width : 1 280 pixels
Height : 720 pixels
Display aspect ratio : 16:9
Frame rate mode : Constant
Frame rate : 25.000 FPS
Color space : YUV
Chroma subsampling : 4:2:0
Bit depth : 8 bits
Scan type : Progressive
Bits/(Pixel*Frame) : 0.456
Stream size : 9.83 GiB (96%)
Color range : Limited
Color primaries : BT.709
Transfer characteristics : BT.709
Matrix coefficients : BT.709

Audio
ID : 2
Format : AC-3
Codec ID : A_AC3
Duration : 2 h 17 min
Bit rate mode : Constant
Bit rate : 256 kb/s
Channel(s) : 2 channels
Channel layout : L R
Sampling rate : 48.0 kHz
Frame rate : 31.250 FPS (1536 SPF)
Compression mode : Lossy
Delay relative to video : -5 ms
Stream size : 251 MiB (2%)
Title : Stereo
Language : any
Service kind : Complete Main
Default : Yes
Forced : No

 

 

Watch online

 

 

 

Server 1

 

 

 

 

 

watch now

 

 

 

 

WWE RAW 2020 01 27 HDTV 1080p

 

 

 

Uploaded By Site DX-TV.com

 

 

 

 

 

1fichier.comĀ 

 

https://shrt10.com/NhJYIg3F
https://shrt10.com/FG15Nsv
https://shrt10.com/JBBbeRwq3
https://shrt10.com/LOGP1Z
https://shrt10.com/gBIfYQWq8
https://shrt10.com/3rNSz

 

DDL.to

 

https://shrt10.com/xYKC7QYAI
https://shrt10.com/X2cai
https://shrt10.com/pHHpD3IL
https://shrt10.com/qQYfPQX
https://shrt10.com/pvXRMsYnt
https://shrt10.com/ofQOS

 

earn4files.com

 

https://shrt10.com/MKBut
https://shrt10.com/WO7nQmMD
https://shrt10.com/E5OfpWJu
https://shrt10.com/coDOimkl
https://shrt10.com/SC7rrgWIj
https://shrt10.com/ppbNoS

filerio.in

 

https://shrt10.com/SoTtcxpo
https://shrt10.com/VFudcSR6b
https://shrt10.com/JiJYTiWo
https://shrt10.com/XM5JRXt
https://shrt10.com/68mbErMd
https://shrt10.com/ytgMyGJH

 

 

 

Download with premium account LinksĀ 

 

 

nitroflare.com

 

 

rapidgator.net

 

 

uploaded.net

 

https://shrt10.com/eLl39T
https://shrt10.com/9de04
https://shrt10.com/tBSxHczB
https://shrt10.com/uRKGtRm
https://shrt10.com/QF0Joj

http://ul.to/mnhex8dv

 

 

 

 

 

 

One thought on “WWE RAW 2020 01 27 HDTV 1080p

Comments are closed.

%d bloggers like this: