WWE RAW 2020 01 27 HDTV Online Star

WWE RAW 2020 01 27 HDTV Online Star DX-TV

 

 

WWE RAW

 

 

 

 

dx-tv.com

 

 

 

 

WWE RAW 2020 01 27 HDTV Online Star

 

 

 

 

 

Complete name : WWE.RAW.2020.01.27.HDTV.x264-Star.mp4
Format : MPEG-4
Format profile : Base Media
File size : 1.59 GiB
Duration : 2 h 17 min
Overall bit rate : 1 660 kb/s

Video
ID : 1
Format : AVC
Duration : 2 h 17 min
Bit rate : 1 500 kb/s
Width : 720 pixels
Height : 406 pixels
Display aspect ratio : 16:9
Frame rate mode : Constant
Frame rate : 25.000 FPS
Color space : YUV
Chroma subsampling : 4:2:0
Bit depth : 8 bits
Scan type : Progressive
Bits/(Pixel*Frame) : 0.205
Stream size : 1.43 GiB (90%)
Color range : Limited
Color primaries : BT.601 PAL
Transfer characteristics : BT.709
Matrix coefficients : BT.601
Codec configuration box : avcC

Audio
ID : 2
Format : AAC LC
Format/Info : Advanced Audio Codec Low Complexity
Codec ID : mp4a-40-2
Duration : 2 h 17 min
Bit rate mode : Constant
Bit rate : 159 kb/s
Channel(s) : 2 channels
Channel layout : L R
Sampling rate : 48.0 kHz
Frame rate : 46.875 FPS (1024 SPF)
Compression mode : Lossy
Stream size : 156 MiB (10%)
Title : Stereo
Language : any
Default : Yes
Alternate group : 1
Encoded date : UTC 2020-01-28 05:13:08
Tagged date : UTC 2020-01-28 05:13:08

 

 

 

 

 

 

Watch online

 

Server 1

 

 

 

 

 

watch now

 

 

 

 

WWE RAW 2020 01 27 HDTV Online Star

 

 

 

Uploaded By Site DX-TV.com

 

 

 

 

 

1fichier.comĀ 

 

 

dailyuploads.net

 

 

DDL.to

 

 

earn4files.com

 

 

filerio.in

 

 

katfile.com

 

 

rockfile.co

 

 

Ubloadbank.com

 

 

 

Download with premium account LinksĀ 

 

 

 

rapidgator.net

 

 

uploaded.net

 

 

 

 86 total views,  3 views today

%d bloggers like this: