WWE Raw 09 November 2020 720p Full Show Online

Watch WWE Raw 2020 720p HDTV Srar DX-TV

WWE Raw 09 November 2020

 

 WWE Raw 09 November 2020

 

WWE Raw 09 November 2020 720p Full Show Online

 

Complete name : WWE.Monday.Night.Raw.2020.11.09.720p.HDTV.x264-Srar.mkv
Format : Matroska
Format version : Version 4
File size : 4.89 GiB
Duration : 2 h 14 min
Overall bit rate : 5 203 kb/s
Writing library : Lavf58.29

WWE Raw 09 November 2020

Video
ID : 1
Format : AVC
Duration : 2 h 14 min
Bit rate : 5 000 kb/s
Width : 1 280 pixels
Height : 720 pixels
Display aspect ratio : 16:9
Frame rate mode : Constant
Frame rate : 29.970 FPS
Color space : YUV
Chroma subsampling : 4:2:0
Bit depth : 8 bits
Scan type : Progressive
Bits/(Pixel*Frame) : 0.181
Stream size : 4.61 GiB
Forced : No
Color range : Limited
Color primaries : BT.709
Transfer characteristics : BT.709
Matrix coefficients : BT.709

WWE Raw 09 November 2020

Audio
ID : 2
Format : AC-3
Format/Info : Audio
Commercial name : Dolby
Codec ID : A_AC3
Duration : 2 h 14 min
Bit rate mode : Constant
Bit rate : 192 kb/s
Channel(s) : 2 channels
Channel layout : L R
Sampling rate : 48.0 kHz
Frame rate : 31.250 FPS
Compression mode : Lossy
Delay relative to video : -5 ms
Stream size : 185 MiB
Title : Stereo
Service kind : Complete Main
Default : Yes
Forced : No

 Raw 09 November 2020

Drew McIntyre to stop by “A Moment of Bliss” this Monday

Drew McIntyre has had only one thing on his mind since WWE Hell in a Cell: Regain the WWE Championship. 

Alexa Bliss will welcome the Scottish Superstar to “A Moment of Bliss” after hosting the current WWE Champion Randy Orton last week.

McIntyre made his championship intentions clear last week, but he’s not the only one who has targeted The Viper.

The Fiend will deliver his own message to McIntyre on behalf of Bliss on Monday Night Raw.

The Miz & John Morrison were also incensed after McIntyre Claymore Kicked The A-Lister’s Money in the Bank cash-in attempt.

Will “A Moment of Bliss” serve as another trap for its latest guest? Or can McIntyre turn the tables on the host and his rivals?

Catch the always controversial talk show this Monday at 8/7 C on Raw on the USA Network

 

WWE Raw 09 November 2020 720p Full Show Online

 

Watch online

 

 

Server 1

 

 

 

WWE Raw 09 November 2020

 

 

 

 

Server-2

 

 

 

watch now

 

 

 Raw 09 November 2020

Uploaded By Site DX-TV.com

 

Download Links with premium High Speed   

 

 

dropapk.to

 

 

 

nitroflare.com

 

 

 

rapidgator.net

 

 

 

uploaded.net

 

 

 

uploadgig.com

 

 

 

 

 

dx-tv.com

 

urlfree.net

You May Also Like

Leave a Reply

Your email address will not be published. Required fields are marked *

This site uses Akismet to reduce spam. Learn how your comment data is processed.