WWE RAW 09 November 2020 Full Show Online

Watch WWE RAW 09 November 2020 Full Show Online DX-TV

 

WWE RAW 09 November 2020

 

Watch WWE RAW Live

 

WWE RAW 09 November 2020 Full Show Online

 

 

 

Complete name : WWE.Monday.Night.Raw.2020.11.09.HDTV.x264-Srar.mp4
Format : MPEG-4
Format profile : Base Media / Version 2
Codec ID : mp42 (isom/iso2/avc1)
File size : 1.38 GiB
Duration : 2 h 14 min
Overall bit rate : 1 470 kb/s

WWE RAW 09 November 2020

Video
ID : 1
Format : AVC
Duration : 2 h 14 min
Bit rate : 1 300 kb/s
Width : 720 pixels
Height : 480 pixels
Display aspect ratio : 16:9
Original display aspect rat : 16:9
Frame rate mode : Constant
rate : 29.970 (30000/1001) FPS
Standard : NTSC
Color space : YUV
Chroma subsampling : 4:2:0
Bit depth : 8 bits
Scan type : Progressive
Bits/(Pixel*Frame) : 0.126
Stream size : 1.22 GiB (89%)
Color range : Limited
Color primaries : BT.601 NTSC
Transfer characteristics : BT.709
Matrix coefficients : BT.601
Codec configuration box : avcC

 RAW 09 November 2020

Audio
ID : 2
Format : AAC LC
Format/Info : Advanced Audio 
Codec ID : mp4a-40-2
Duration : 2 h 14 min
Bit rate mode : Constant
Bit rate : 159 kb/s
Channel(s) : 2 channels
Channel layout : L R
Sampling rate : 48.0 kHz
Frame rate : 46.875 FPS 
Compression mode : Lossy
Stream size : 153 MiB (11%)
Title : Stereo
Default : Yes
Alternate group : 1

WWE RAW 09 November 2020

Drew McIntyre to stop by “A Moment of Bliss” this Monday

Drew McIntyre has had only one thing on his mind since WWE Hell in a Cell: Regain the WWE Championship. 

Alexa Bliss will welcome the Scottish Superstar to “A Moment of Bliss” after hosting the current WWE Champion Randy Orton last week.

McIntyre made his championship intentions clear last week, but he’s not the only one who has targeted The Viper.

The Fiend will deliver his own message to McIntyre on behalf of Bliss on Monday Night Raw.

The Miz & John Morrison were also incensed after McIntyre Claymore Kicked The A-Lister’s Money in the Bank cash-in attempt.

Will “A Moment of Bliss” serve as another trap for its latest guest? Or can McIntyre turn the tables on the host and his rivals?

Catch the always controversial talk show this Monday at 8/7 C on Raw on the USA Network.

 

WWE RAW 09 November 2020 Full Show Online

 

 

 

Watch online

 

 

Server 1

 

 

 

 

WWE RAW 09 November 2020

 

 

 

 

Server-2

 

 

 

watch now

 

 

 

 

 

 

 

Uploaded By Site DX-TV.com

 

 

 

 

Download Free Links with normal and high Speed [ more 15 hosts ]  

 

[su_expand more_text=”Show Hosts Info” less_text=”Close all Info” height=”30″ text_color=”#000000″ link_color=”#e25f8b” link_style=”button” more_icon=”icon: arrow-down” less_icon=”icon: arrow-up”]

WWE RAW 09 November 2020

 

hexupload.net – clicknupload.co – www.multiup.org – uptobox.com – anonfiles.com – userscloud.com –

dropapk.to alfafile.net – ddownload.com – rockfile.co – 1fichier.com – filedown.org – katfile.com – filerio.in

 

 

[/su_expand]

 

 

http://shrt10.com/nfcJD6
http://shrt10.com/5mfBkgVR
http://shrt10.com/wScan
http://shrt10.com/OaIWTDV
http://shrt10.com/QRdLJJ
http://shrt10.com/o4f7Gs
http://shrt10.com/jWYQyX
http://shrt10.com/H1RaUoyl

 

 

 

 

Download Links with premium High Speed   

 

 RAW 09 November 2020

 

 

 

dropapk.to

 

 

 

uploaded.net

 

 

 

nitroflare.com

 

 

 

rapidgator.net

 

 

 

uploadgig.com

 

 

 

 

 

dx-tv.com

 

urlfree.net

Leave a Reply

Your email address will not be published. Required fields are marked *

This site uses Akismet to reduce spam. Learn how your comment data is processed.