Download Raw 09 November 2020 1080p WWE Free Replay

WWE Raw 09 November 2020 1080p Free Replay DX-TV

WWE Raw 09 November 2020

 

 WWE Raw 09 November 2020
 


 

 

Download Raw 09 November 2020 1080p WWE Free Replay

 

 

 

 

Complete name : WWE.Monday.Night.Raw.2020.11.09.1080p.HDTV.x264-Srar.mkv
Format : Matroska
Format version : Version 4
File size : 9.66 GiB
Duration : 2 h 14 min
Overall bit rate : 10.3 Mb/s
Writing library : Lavf58.29.100

WWE Raw 09 November 2020

Video
ID : 1
Format : AVC
Duration : 2 h 14 min
Bit rate : 10 000 kb/s
Width : 1 920 pixels
Height : 1 080 pixels
Display aspect ratio : 16:9
Frame rate mode : Constant
Frame rate : 29.970FPS
Color space : YUV
Chroma subsampling : 4:2:0
Bit depth : 8 bits
Scan type : Progressive
Bits/(Pixel*Frame) : 0.161
Stream size : 9.23 GiB (96%)
Forced : No
Color range : Limited
Color primaries : BT.709
Transfer characteristics : BT.709
Matrix coefficients : BT.709

WWE Raw 09 November 2020

Audio
ID : 2
Format : AC-3
Format/Info : Audio Coding 3
Commercial name : Dolby Digital
Codec ID : A_AC3
Duration : 2 h 14 min
Bit rate mode : Constant
Bit rate : 256 kb/s
Channel(s) : 2 channels
Channel layout : L R
Sampling rate : 48.0 kHz
Frame rate : 31.250 FPS
Compression mode : Lossy
Delay relative to video : -5 ms
Stream size : 246 MiB (2%)
Title : Stereo
Service kind : Complete Main
Default : Yes
Forced : No

WWE Raw 09 November 2020

Jeff Hardy, Riddle and Elias get second chance at Survivor Series Qualifying

One spot on Team Raw is on the line, as the red brand closes in on a battle between The Best of the Best at Survivor Series.

Jeff Hardy, Riddle and Elias will take part in a Second Chance Triple Threat Match with a place at Survivor Series going to the victor.

All three competitors fell short in their first attempt at qualifying for Team Raw.

but they’ll get one last opportunity to join the fight for brand supremacy.

To make matters even more interesting, Hardy and Elias have escalated their rivalry in recent weeks.

 

Download Raw 09 November 2020 1080p WWE Free Replay

 

Watch online

 

 

Server 1

 

 

 

 

WWE Raw 09 November 2020

 

 

 

 

Server-2

 

 

 

watch now

 

WWE Raw 09 November 2020

Uploaded By Site DX-TV.com

 

Download Links with premium High Speed   

 

 

 

 

dropapk.to

 

 

 

nitroflare.com

 

 

 

rapidgator.net

 

 

 

uploadgig.com

 

 

 

 

 

dx-tv.com

 

urlfree.net

Leave a Reply

Your email address will not be published. Required fields are marked *

This site uses Akismet to reduce spam. Learn how your comment data is processed.