WWE Monday Night Raw 2020 01 27 720p

WWE Monday Night Raw 2020 01 27 720p NWCHD DX-TV

 

 

WWE RAW

 

 

 

 

dx-tv.com

 

 

 

 

WWE Monday Night Raw 2020 01 27 720p

 

 

 

 

 

Complete name : WWE.Monday.Night.Raw.2020.01.27.720p.HDTV.x264-NWCHD.mp4
Format : MPEG-4
Format profile : Base Media
Codec ID : isom
File size : 4.35 GiB
Duration : 2 h 11 min
Overall bit rate : 4 729 kb/s

Video
ID : 1
Format : AVC
Duration : 2 h 11 min
Bit rate : 4 500 kb/s
Width : 1 280 pixels
Height : 720 pixels
Display aspect ratio : 16:9
Frame rate mode : Variable
Frame rate : 29.970 (30000/1001) FPS
Minimum frame rate : 25.818 FPS
Maximum frame rate : 29.970 FPS
Color space : YUV
Chroma subsampling : 4:2:0
Bit depth : 8 bits
Scan type : Progressive
Bits/(Pixel*Frame) : 0.163
Stream size : 4.16 GiB (96%)
Color primaries : BT.709

Audio
ID : 2
Format : AAC LC
Codec ID : mp4a-40-2
Duration : 2 h 11 min
Bit rate mode : Constant
Bit rate : 192 kb/s
Channel(s) : 2 channels
Channel layout : L R
Sampling rate : 48.0 kHz
Frame rate : 46.875 FPS (1024 SPF)
Compression mode : Lossy
Stream size : 181 MiB (4%)
Title : Stereo
Default : Yes
Alternate group : 1

 

They say if you fight one person long enough you begin to take on the traits of your enemies. By the looks of Humberto Carrillo, that just might be true.

After coming up short in his second challenge to Andrade in two days, the young highflyer channeled the signature aggression of the United States Champion, including his most infamous maneuver.

When Zelina Vega interfered during the match — breaking up what might have been a decisive pinfall and getting Andrade disqualified to save his title —

Carrillo decided to dish out some payback, raining down blows on the United States Champion before Hammerlock DDT’ing him onto the exposed concrete.

That’s the same maneuver that put Carrillo out of action several weeks ago, and his co-opting of the act is a twofold

sign that bodes ill for Andrade. They’re even, and yet, somehow, this is just getting started

 

 

Watch online

 

 

Server 1

 

 

 

watch now

 

 

 

WWE Monday Night Raw 2020 01 27 720p

 

 

 

Uploaded By Site DX-TV.com

 

 

 

 

 

1fichier.com 

 

https://shrt10.com/e2ENbzp0O
https://shrt10.com/b9STP1
https://shrt10.com/EeiYuPj5

 

DDL.to

 

https://shrt10.com/s4Ado8OWb
https://shrt10.com/YJEmm
https://shrt10.com/i0LuIsJ5V

 

earn4files.com

 

https://shrt10.com/E1MSTPuf
https://shrt10.com/rnnVKa
https://shrt10.com/MGAqVfrM

filerio.in

https://shrt10.com/15BYU
https://shrt10.com/Vkaagy
https://shrt10.com/CTEnPT

 

rockfile.co

https://shrt10.com/fVLFJj
https://shrt10.com/EKu3fRww
https://shrt10.com/tF2Xd

 

Ubloadbank.com

 

https://shrt10.com/fuE9oz
https://shrt10.com/iUuZw
https://shrt10.com/gFTeAd

 

Download with premium account Links 

 

 

nitroflare.com

 

 

rapidgator.net

 

 

uploaded.net

 

 

 

 

 

 

2 thoughts on “WWE Monday Night Raw 2020 01 27 720p

Comments are closed.

%d bloggers like this: