Watch WWE Raw 2020 01 27 Online

Watch WWE Monday Night Raw 2020 01 27 Online NWCHD DX-TV

 

 

WWE RAW

 

 

 

 

dx-tv.com

 

 

 

 

Watch WWE Raw 2020 01 27 Online

 

 

 

Complete name : D:\WWE\Downloading\WWE.Monday.Night.Raw.2020.01.27.HDTV.x264-NWCHD.mp4
Format : MPEG-4
Format profile : Base Media
Codec ID : isom (isom/iso2/avc1/mp41)
File size : 1.48 GiB
Duration : 2 h 11 min
Overall bit rate : 1 611 kb/s

Video
ID : 1
Format : AVC
Duration : 2 h 11 min
Bit rate : 1 400 kb/s
Width : 704 pixels
Height : 400 pixels
Display aspect ratio : 16:9
Frame rate mode : Variable
Frame rate : 29.970 (30000/1001) FPS
Minimum frame rate : 25.818 FPS
Maximum frame rate : 29.970 FPS
Color space : YUV
Chroma subsampling : 4:2:0
Bit depth : 8 bits
Scan type : Progressive
Bits/(Pixel*Frame) : 0.166
Stream size : 1.30 GiB (88%)
Color primaries : BT.709
Transfer characteristics : BT.709
Matrix coefficients : BT.709
Codec configuration box : avcC

Audio
ID : 2
Format : AAC LC
Codec ID : mp4a-40-2
Duration : 2 h 11 min
Bit rate mode : Constant
Bit rate : 192 kb/s
Channel(s) : 2 channels
Channel layout : L R
Sampling rate : 48.0 kHz
Frame rate : 46.875 FPS (1024 SPF)
Compression mode : Lossy
Stream size : 181 MiB (12%)
Title : Stereo
Default : Yes
Alternate group : 1

 

 

 

Their match (a rematch of a WrestleMania 34 show-stealer) was at a dead heat, with counters on counters on counters and Asuka nearly wearing

The Queen down with a tentacled ground game. Flair locked in the Figure-Eight, but Kairi Sane broke the hold with an InSane

Elbow that gave Charlotte a disqualification win — hardly the decisive victory Flair seemed to want. With Charlotte yet to declare who she’ll challenge

at WrestleMania, she undoubtedly has her future in her hands. But first, she might have to get past this reminder of her past.

 

 

 

Watch online

 

 

Waiting finish converting video

 

 

Server 1

 

 

 

watch now

 

 

 

Watch WWE Raw 2020 01 27 Online

 

 

 

Uploaded By Site DX-TV.com

 

 

 

 

 

1fichier.com 

 

 

dailyuploads.net

 

 

DDL.to

 

 

earn4files.com

 

 

filerio.in

 

 

katfile.com

 

 

rockfile.co

 

 

Ubloadbank.com

 

 

 

Download with premium account Links 

 

 

nitroflare.com

 

 

rapidgator.net

 

 

uploaded.net

 

 

 

You May Also Like