WWE Essentials Becky Lynchs 5 Best Raw Womens 1080p

Watch WWE Essentials E02 Becky Lynchs 5 Best Raw Womens Title Matches 1080p HEEL DX-TV

wwe

 wwe

 

 

WWE Essentials Becky Lynchs 5 Best Raw Womens 1080p

 

 

Complete name : WWE.Essentials.E02.Becky.Lynchs.5.Best.Raw.Womens.Title.Matches.1080p.WEB.h264-HEEL.mp4
Format : MPEG-4
Format profile : wwe
Codec ID : isom
File size : 6.71 GiB
Duration : 2 h 0 min
Overall bit rate : 7 936 kb/s
Writing application : wwe

Video
ID : 1
Format : AVC
Duration : 2 h 0 min
Bit rate : 7 808 kb/s
Width : 1 920 pixels
Height : 1 080 pixels
Display aspect ratio : 16:9
Frame rate mode : wwe
Frame rate : 30.000 FPS
Color space : wwe
Chroma  : 4:2:0
Bit depth : 8 bits
Scan type : wwe
Bits/(Pixel*Frame) : 0.126
Stream size : 6.53 GiB (97%)

Audio
ID : 2
Format : AAC LC
Format/Info : wwe
Codec ID : mp4a-40-2
Duration : 2 h 0 min
Bit rate mode : wwe
Bit rate : 192 kb/s
Channel(s) : 2 channels
Channel layout : L R
Sampling rate : 48.0 kHz
Frame rate : 46.875 FPS (1024 SPF)
Compression mode : Lossy
Stream size : 167 MiB (2%)
Default : Yes
Alternate group : wwe

 

 

 

Watch online

 

 

Server 1

 

 

 

 

watch now

 

 

 

 

Server 2

 

 

 

watch now

 

 

 

WWE Essentials Becky Lynchs 5 Best Raw Womens 1080p

 

 

Uploaded By Site DX-TV.com

 

 

Download with Free Links 

 

 

1fichier.com

https://shrt10.com/QwQBbJ
https://shrt10.com/MHQyUY
https://shrt10.com/2BfqZDIq
https://shrt10.com/U4cu27Ft

 

DDL.to

https://shrt10.com/5XC6WCVn9
https://shrt10.com/6J7yd2wx
https://shrt10.com/ychFiq
https://shrt10.com/tRlPJ2JVr

 

rockfile.co

https://shrt10.com/gGGGpCSX
https://shrt10.com/VmJXk
https://shrt10.com/52uMcxER
https://shrt10.com/MbrGj

 

 

Download with premium account Links 

 

 

Keep2Share

 

 

mixdrop.co

https://shrt10.com/gdqbE
https://shrt10.com/Kzxhsw8
https://shrt10.com/o3nQ5Y8mS
https://shrt10.com/V1nMN

 

alfafile.net

https://shrt10.com/xSjVdSV2
https://shrt10.com/sbLT8vy7C
https://shrt10.com/fGVxD
https://shrt10.com/khAfA

 

nitroflare.com

 

 

rapidgator.net

 

 

uploadgig.com

 

 

 

dx-tv.com

 

urlfree.net

Leave a Reply

Your email address will not be published. Required fields are marked *

This site uses Akismet to reduce spam. Learn how your comment data is processed.

%d bloggers like this: