WWE The Bump 2020 03 25 1080p DX-TV

Watch WWE The Bump 2020 03 25 1080p DX-TV

WWE

 WWE

 

 

WWE The Bump 2020 03 25 1080p DX-TV

 

Complete name : WWE The Bump 2020 03 25 1080p WEB h264 DX-TV.mp4
Format : MPEG-4
Format profile : Base Media
Codec ID : WWE
File size : 3.65 GiB
Duration : 1 h 29 min
Overall bit rate mode : Variable
Overall bit rate : 5 814 kb/s
Writing application : WWE

Video
ID : 1
Format : AVC
Format/Info : Advanced Video Codec
Codec ID : avc1
Codec ID/Info :  WWE
Duration : 1 h 29 min
Bit rate : 5 679 kb/s
Width : 1 920 pixels
Height : 1 080 pixels
Display aspect ratio : 16:9
Frame rate mode : WWE
Frame rate : 30.000 FPS
Minimum frame rate : 29.412 FPS
Maximum frame rate : 90 000.000 FPS
Color space : YUV
Chroma  : 4:2:0
Bit depth : 8 bits
Scan type : WWE
Bits/(Pixel*Frame) : 0.091
Stream size : 3.57 GiB (98%)
Audio
ID : 2
Format : AAC LC
Format/Info : WWE
Codec ID : mp4a-40-2
Duration : 1 h 29 min
Bit rate mode : WWE
Bit rate : 125 kb/s
Maximum bit rate : 127 kb/s
Channel(s) : 2 channels
Channel layout : L R
Sampling rate : 48.0 kHz
Frame rate : 46.875 FPS (1024 SPF)
Compression mode : Lossy
Stream size : 80.7 MiB (2%)
Default : Yes
Alternate group :WWE

Text #1
ID : 1-CC1
Format : EIA-608
Duration : 1 h 29 min
Bit rate mode : WWE
Stream size : 0.00 Byte (0%)
CaptionServiceName : CC1

Text #2
ID : 1-CC3
Format : EIA-608
Duration : 1 h 29 min
Bit rate mode : WWE
Stream size : 0.00 Byte (0%)
CaptionServiceName : CC3

Text #3
ID : 1-1
Format : EIA-708
Duration : 1 h 29 min
Bit rate mode : WWE
Stream size : 0.00 Byte (0%)

Text #4
ID : 1-3
Format : EIA-708
Duration : 1 h 29 min
Bit rate mode : WWE
Stream size : 0.00 Byte (0%)

 

 

 

 

 

Watch online

 

 

Server 1

 

 

 

 

watch now

 

 

 

 

Server 2

 

 

 

watch now

 

 

 

WWE The Bump 2020 03 25 1080p DX-TV

 

 

Uploaded By Site DX-TV.com

 

 

Download with Free Links 

 

 

1fichier.com

https://shrt10.com/geFumJF
https://shrt10.com/uZuv7v1
https://shrt10.com/gCU6Gwup6

 

DDL.to

https://shrt10.com/COL39nJgj
https://shrt10.com/01Dc5hF
https://shrt10.com/lWjJSJV

 

rockfile.co

https://shrt10.com/mnolgMo
https://shrt10.com/aHyz2ZKG
https://shrt10.com/Uhir71J

 

 

Download with premium account Links 

 

 

Keep2Share

 

 

mixdrop.co

 

 

alfafile.net

 

 

nitroflare.com

 

 

rapidgator.net

 

 

uploadgig.com

 

 

 

dx-tv.com

 

urlfree.net

Leave a Reply

Your email address will not be published. Required fields are marked *

This site uses Akismet to reduce spam. Learn how your comment data is processed.

%d bloggers like this: