WWE Essentials E02 Becky Lynchs 5 Best Raw Womens

Watch WWE Essentials E02 Becky Lynchs 5 Best Raw Womens Title Matches 720p HEEL DX-TV

Becky Lynchs

 

Becky Lynchs

 

 

WWE Essentials E02 Becky Lynchs 5 Best Raw Womens

 

 

Complete name : WWE.Essentials.E02.Becky.Lynchs.5.Best.Raw.Womens.Title.Matches.720p.Hi.WEB.h264-HEEL.mp4
Format : MPEG-4
Format profile : Becky Lynchs
Codec ID : isom
File size : 2.98 GiB
Duration : 2 h 0 min
Overall bit rate : 3 531 kb/s
Writing application : Becky Lynchs

Video
ID : 1
Format : AVC
Duration : 2 h 0 min
Bit rate : 3 372 kb/s
Width : 1 280 pixels
Height : 720 pixels
 aspect ratio : 16:9
Frame rate mode : Becky Lynchs
Frame rate : 30.000 FPS
Color space : YUV
Chroma  : 4:2:0
Bit depth : 8 bits
Scan type : Becky Lynchs
Bits/(Pixel*Frame) : 0.122
Stream size : 2.81 GiB (94%)

Audio
ID : 2
Format : AAC LC
Format/Info : Becky Lynchs
Codec ID : mp4a-40-2
Duration : 2 h 0 min
Bit rate mode : Becky Lynchs
Bit rate : 192 kb/s
Channel(s) : 2 channels
Channel layout : L R
Sampling rate : 48.0 kHz
Frame rate : 46.875 FPS (1024 SPF)
Compression mode : Lossy
Stream size : 167 MiB (5%)
Default : Yes
Alternate group : 1

 

 

 

Watch online

 

 

Server 1

 

 

 

 

watch now

 

 

 

 

Server 2

 

 

 

watch now

 

 

 

WWE Essentials E02 Becky Lynchs 5 Best Raw Womens

 

 

Uploaded By Site DX-TV.com

 

 

Download with Free Links 

 

 

1fichier.com

https://shrt10.com/C8Q2Qz
https://shrt10.com/2qrjY59

 

DDL.to

https://shrt10.com/wItUBIWfl
https://shrt10.com/Y3D8p

 

 

rockfile.co

https://shrt10.com/0oyJ9bSD6
https://shrt10.com/Yfb5OHUD

 

 

Download with premium account Links 

 

 

Keep2Share

 

 

mixdrop.co

 

 

alfafile.net

 

 

nitroflare.com

 

 

rapidgator.net

 

 

uploadgig.com

 

 

 

dx-tv.com

 

urlfree.net

Leave a Reply

Your email address will not be published. Required fields are marked *

This site uses Akismet to reduce spam. Learn how your comment data is processed.

%d bloggers like this: