WWE Backstage 2020 02 11 720p

Watch WWE Backstage 2020 02 11 720p DX-TV

 

 

 UFC

 

WWE

 

WWE Backstage 2020 02 11 720p

 

 

 

 
Complete name : WWE.Backstage.2020.02.11.720p.WEB.h264-HEEL.mp4
Format : MPEG-4
Format profile : Base Media
Codec ID : isom
File size : 1.91 GiB
Duration : 45 min 13 s
Overall bit rate mode : Variable
Overall bit rate : 6 059 kb/s
Law rating : TV-PG (LV)
Writing application : Lavf58.32.104

Video wwe
ID : 1
Format : AVC
Duration : 45 min 13 s
Bit rate : 6 000 kb/s
Width : 1 280 pixels
Height : 720 pixels
Display aspect ratio : 16:9
Frame rate mode : Variable
Frame rate : 59.940 (59940/1000) FPS
Color space : YUV
Chroma subsampling : 4:2:0
Bit depth : 8 bits
Scan type : Progressive
Bits/(Pixel*Frame) : 0.109
Stream size : 1.89 GiB (99%)

Audio
ID : 2
Format : AAC LC SBR
Commercial name : HE-AAC
Format settings : Implicit
Codec ID : mp4a-40-2
Duration : 45 min 13 s
Bit rate mode : Variable
Bit rate : 62.9 kb/s
Maximum bit rate : 65.4 kb/s
Channel(s) : 2 channels
Channel layout : L R
Sampling rate : 48.0 kHz
Frame rate : 23.438 FPS (2048 SPF)
Compression mode : Lossy
Stream size : 20.3 MiB (1%)
Default : Yes
Alternate group : 1

WWE Backstage

 

Watch online

 

Server 1

 

 

 

 

 

 

Backstage

 

Server 2

 

 


 

 

 

WWE Backstage 2020 02 11 720p

 

 

 

Uploaded By Site DX-TV.com

 

 

 

 

1fichier.com 

 

 

DDL.to

 

earn4files.com

 

 

rockfile.co

 

 

 

Download with premium account Links 

 

 

Keep2Share.cc

 

 

nitroflare.com

 

 

rapidgator.net

 

 

Uploadgig.com

 

 

dx-tv.com

Leave a Reply

Your email address will not be published. Required fields are marked *

This site uses Akismet to reduce spam. Learn how your comment data is processed.