ROH Wrestling 2020/02/7 1080p

Watch ROH Wrestling 2020/02/7 1080p DX-TV

ROH

 

 OH Wrestling

 

 

 

ROH Wrestling 2020/02/7 1080p

 

Complete name : ROH.Wrestling.Ep.438.7th.Feb.2020 1080p.mp4
Format : MPEG-4
Format profile : Base Media
File size : 1.57 GiB
Duration : 51 min 0 s
Overall bit rate : 4 417 kb/s
Writing application : Lavf58.35.101

Video
ID : 1
Format : AVC
Duration : 51 min 0 s
Bit rate : 4 316 kb/s
Nominal bit rate : 4 800 kb/s
Width : 1 920 pixels
Height : 1 080 pixels
Display aspect ratio : 16:9
Frame rate mode : Constant
Frame rate : 25.000 FPS
Color space : YUV
Chroma subsampling : 4:2:0
Bit depth : 8 bits
Scan type : Progressive
Bits/(Pixel*Frame) : 0.083
Stream size : 1.54 GiB (98%)
Writing library : x264 core 152

Audio
ID : 2
Format : AAC LC
Codec ID : mp4a-40-2
Duration : 51 min 0 s
Bit rate mode : Constant
Bit rate : 96.0 kb/s
Channel(s) : 2 channels
Channel layout : L R
Sampling rate : 48.0 kHz
Frame rate : 46.875 FPS (1024 SPF)
Compression mode : Lossy
Stream size : 34.9 MiB (2%)
Default : Yes
Alternate group : 1

 

 

Wrestling 2020/02/7

 

Watch online

 

 

Server 1

 

 

 

 

 

 

 

 

 

ROH Wrestling 2020/02/7 1080p

 

 

 

Uploaded By Site DX-TV.com

 

 

 

 

1fichier.com 

 

 

DDL.to

 

 

dl.free.fr

 

 

earn4files.com

 

 

rockfile.co

 

 

 

Download with premium account Links 

 

 

nitroflare.com

 

 

rapidgator.net

 

 

Uploadgig.com

 

ROH

 

dx-tv.com

Leave a Reply

Your email address will not be published. Required fields are marked *

This site uses Akismet to reduce spam. Learn how your comment data is processed.