iMPACT Wrestling 2020 02 11 1080p HDTV Star

Watch iMPACT Wrestling 2020 02 11 1080p HDTV Star DX-TV

 

 

 iMPACT Wrestling

 

 

 

iMPACT Wrestling 2020 02 11 1080p HDTV Star

 

 

 

 

 

Complete name : iMPACT.Wrestling.2020.02.11.1080p.HDTV.x264-Star.mkv
Format : Matroska
Format version : Version 4
File size : 6.74 GiB
Duration : 1 h 28 min
Overall bit rate : 10.9 Mb/s
Writing library : Lavf58.29.100
ErrorDetectionType : Per level 1

Video
ID : 1
Format : AVC
Duration : 1 h 28 min
Bit rate : 10.5 Mb/s
Width : 1 920 pixels
Height : 1 080 pixels
Display aspect ratio : 16:9
Frame rate mode : Constant
Frame rate : 25.000 FPS
Color space : YUV
Chroma subsampling : 4:2:0
Bit depth : 8 bits
Scan type : Progressive
Bits/(Pixel*Frame) : 0.203
Stream size : 6.37 GiB (94%)
Forced : No
Color range : Limited
Color primaries : BT.709
Transfer characteristics : BT.709
Matrix coefficients : BT.709

Audio
ID : 2
Format : AC-3
Codec ID : A_AC3
Duration : 1 h 28 min
Bit rate mode : Constant
Bit rate : 384 kb/s
Channel(s) : 6 channels
Channel layout : L R C LFE Ls Rs
Sampling rate : 48.0 kHz
Frame rate : 31.250 FPS (1536 SPF)
Compression mode : Lossy
Delay relative to video : -5 ms
Stream size : 244 MiB (4%)
Title : Surround
Language : any
Service kind : Complete Main
Default : Yes
Forced : No

Wrestling

 

Watch online

 

 

Server 1

 

 

 

 

 

 

 

 

 

Server 2

 

 

 

 

 

 

 

 

 

 

Server–3

 

 

 

 

 

 

 

 

 

 

iMPACT Wrestling 2020 02 11 1080p HDTV Star

 

 

 

Uploaded By Site DX-TV.com

 

 

 

 

1fichier.com 

https://shrt10.com/N4UA6mu
https://shrt10.com/NF88SEW
https://shrt10.com/4Zrppj
https://shrt10.com/wjCE9K

 

DDL.to

https://shrt10.com/o4EZ9lLZ8
https://shrt10.com/pCrUl
https://shrt10.com/omiQaVKA1
https://shrt10.com/hJOkQz

 

earn4files.com

https://shrt10.com/inBUjv4
https://shrt10.com/IQpMWnP6
https://shrt10.com/PRbKNBP1u
https://shrt10.com/6wVdsHdKV

 

rockfile.co

https://shrt10.com/g6Jwi
https://shrt10.com/1YFImnX
https://shrt10.com/yTULsYc
https://shrt10.com/2V8EBv

 

 

Download with premium account Links 

 

 

Keep2Share.cc

 

 

nitroflare.com

 

 

rapidgator.net

 

 

Uploadgig.com

 

 

 

dx-tv.com