Watch WWE The Bump 2021 02 03 720p DX-TV

Watch WWE The Bump 2021 02 03 720p DX-TV

Watch WWE The Bump

 Watch WWE The Bump

 

Download Links with premium High Speed   

 

 

dropapk.to

http://shrt10.com/5ywQNT4NR
http://shrt10.com/714p6UXK

 

 

nitroflare.com

http://shrt10.com/EAnfcilLn
http://shrt10.com/fFkjeX

 

 

rapidgator.net

http://shrt10.com/coKSD0
http://shrt10.com/1vmItNurY

 

 

uploaded.net

http://shrt10.com/95LBNEqq
http://shrt10.com/CufLGmt

 

 

 

Watch WWE online

 

Server 1

 

 

 

 

Watch WWE

 

 

 

 

Server-2

 

 

 

 

watch now

 

 

Uploaded By Site DX-TV.com

 

Complete name : WWE.The.Bump.2021.02.03.WEB.h264-HEEL.mp4
Format : MPEG-4
Format profile : Base Media
Codec ID : isom
File size : 1.30 GiB
Duration : 1 h 50 min
Overall bit rate mode : Variable
Overall bit rate : 1 698 kb/s
Writing application : Lavf58.32.104

Watch WWE

Video
ID : 1
Format : AVC
Format/Info : Advanced Video
Duration : 1 h 50 min
Bit rate mode : Variable
Bit rate : 1 564 kb/s
Maximum bit rate : 1 663 kb/s
Width : 896 pixels
Height : 504 pixels
Display aspect ratio : 16:9
Frame rate mode : Variable
Frame rate : 30.000 FPS
Standard : NTSC
Color space : YUV
Chroma subsampling : 4:2:0
Bit depth : 8 bits
Scan type : Progressive
Bits/(Pixel*Frame) : 0.115
Stream size : 1.20 GiB (92%)
Color primaries : BT.709
Transfer characteristics : BT.709
Matrix coefficients : BT.709
Codec configuration box : avcC

Audio
ID : 2
Format : AAC LC
Codec ID : mp4a-40-2
Duration : 1 h 50 min
Bit rate mode : Variable
Bit rate : 125 kb/s
Maximum bit rate : 128 kb/s
Channel(s) : 2 channels
Channel layout : L R
Sampling rate : 48.0 kHz
Frame rate : 46.875 FPS (1024 SPF)
Compression mode : Lossy
Stream size : 98.7 MiB (7%)
Default : Yes
Alternate group : 1

Watch WWE

Text #1
ID : 1-CC1
Format : EIA-608
Muxing mode : SCTE 128 / DTVCC Transport
Muxing mode, more info : Muxed in Video #1
Duration : 1 h 50 min
Bit rate mode : Constant
Stream size : 0.00 Byte (0%)
CaptionServiceName : CC1

Text #2
ID : 1-CC3
Format : EIA-608
Muxing mode : SCTE 128 / DTVCC Transport
Muxing mode, more info : Muxed in Video #1
Duration : 1 h 50 min
Bit rate mode : Constant
Stream size : 0.00 Byte (0%)
CaptionServiceName : CC3

Watch WWE

Text #3
ID : 1-1
Format : EIA-708
Muxing mode : SCTE 128 / DTVCC Transport
Muxing mode, more info : Muxed in Video #1
Duration : 1 h 50 min
Bit rate mode : Constant
Stream size : 0.00 Byte (0%)

Complete name : WWE.The.Bump.2021.02.03.720p.WEB.h264-HEEL.mp4
Format : MPEG-4
Format profile : Base Media
Codec ID : isom
File size : 2.37 GiB
Duration : 1 h 50 min
Overall bit rate mode : Variable
Overall bit rate : 3 088 kb/s
Writing application : Lavf58.32.104

Watch WWE

Video
ID : 1
Format : AVC
Format/Info : Advanced Video
Duration : 1 h 50 min
Bit rate mode : Variable
Bit rate : 2 955 kb/s
Maximum bit rate : 3 159 kb/s
Width : 1 280 pixels
Height : 720 pixels
Display aspect ratio : 16:9
Frame rate mode : Variable
Frame rate : 30.000 FPS
Standard : NTSC
Color space : YUV
Chroma subsampling : 4:2:0
Bit depth : 8 bits
Scan type : Progressive
Bits/(Pixel*Frame) : 0.107
Stream size : 2.27 GiB (96%)
Color primaries : BT.709
Transfer characteristics : BT.709
Matrix coefficients : BT.709
Codec configuration box : avcC

Audio
ID : 2
Format : AAC LC
Codec ID : mp4a-40-2
Duration : 1 h 50 min
Bit rate mode : Variable
Bit rate : 125 kb/s
Maximum bit rate : 128 kb/s
Channel(s) : 2 channels
Channel layout : L R
Sampling rate : 48.0 kHz
Frame rate : 46.875 FPS (1024 SPF)
Compression mode : Lossy
Stream size : 98.7 MiB (4%)
Default : Yes
Alternate group : 1

Watch WWE

Text #1
ID : 1-CC1
Format : EIA-608
Muxing mode : SCTE 128 / DTVCC Transport
Muxing mode, more info : Muxed in Video #1
Duration : 1 h 50 min
Bit rate mode : Constant
Stream size : 0.00 Byte (0%)
CaptionServiceName : CC1

Text #2
ID : 1-CC3
Format : EIA-608
Muxing mode : SCTE 128 / DTVCC Transport
Muxing mode, more info : Muxed in Video #1
Duration : 1 h 50 min
Bit rate mode : Constant
Stream size : 0.00 Byte (0%)
CaptionServiceName : CC3

Watch WWE

Text #3
ID : 1-1
Format : EIA-708
Muxing mode : SCTE 128 / DTVCC Transport
Muxing mode, more info : Muxed in Video #1
Duration : 1 h 50 min
Bit rate mode : Constant
Stream size : 0.00 Byte (0%)

 

 

https://dx-tv.com/

You May Also Like

Leave a Reply

Your email address will not be published. Required fields are marked *

This site uses Akismet to reduce spam. Learn how your comment data is processed.