Watch WWE NXT UK 2021 02 04 1080p DX-TV

Watch WWE NXT UK 2021 02 04 1080p DX-TV

Watch WWE NXT UK

 Watch WWE NXT UK

 

Download Links with premium High Speed   

 

 

dropapk.to

http://shrt10.com/p7b82UH4c

http://shrt10.com/tr4eC8Y

 

nitroflare.com

http://shrt10.com/UC35mV
http://shrt10.com/UT56d

 

 

rapidgator.net

http://shrt10.com/qn39CwK2
http://shrt10.com/G4JfKm2

 

 

uploaded.net

http://shrt10.com/RzJ7kG3de
http://shrt10.com/lpYmx

 

 

 

Watch WWE NXT UK online

 

Server 1

 

 

 

 

Watch WWE NXT

 

 

 

 

Server-2

 

 

 

 

watch now

 

 

Uploaded By Site DX-TV.com

 

Complete name : WWE.NXT.UK.2021.02.04.1080p.WEB.h264-HEEL.mp4
Format : MPEG-4
Format profile : Base Media
Codec ID : isom
File size : 3.65 GiB
Duration : 1 h 5 min
Overall bit rate mode : Variable
Overall bit rate : 7 949 kb/s
Writing application : Lavf58.32.104

Watch WWE NXT

Video
ID : 1
Format : AVC
Format/Info : Advanced Video
Duration : 1 h 5 min
Bit rate : 7 808 kb/s
Width : 1 920 pixels
Height : 1 080 pixels
Display aspect ratio : 16:9
Frame rate mode : Constant
Frame rate : 30.000 FPS
Color space : YUV
Chroma subsampling : 4:2:0
Bit depth : 8 bits
Scan type : Progressive
Bits/(Pixel*Frame) : 0.126
Stream size : 3.56 GiB

Audio
ID : 2
Format : AAC LC
Format/Info : Advanced Audio
Codec ID : mp4a-40-2
Duration : 1 h 5 min
Bit rate mode : Variable
Bit rate : 192 kb/s
Maximum bit rate : 423 kb/s
Channel(s) : 2 channels
Channel layout : L R
Sampling rate : 48.0 kHz
Frame rate : 46.875 FPS
Compression mode : Lossy
Stream size : 90.6 MiB
Default : Yes
Alternate group : 1

Watch WWE NXT

Text
ID : 3
Format : Timed Text
Muxing mode : sbtl
Codec ID : tx3g
Duration : 1 h 5 min
Bit rate mode : Variable
Bit rate : 102 b/s
Stream size : 49.0 KiB
Language : English
Default : Yes
Forced : No
Alternate group : 3

Complete name : WWE.NXT.UK.2021.02.04.720p.Hi.WEB.h264-HEEL.mp4
Format : MPEG-4
Format profile : Base Media
Codec ID : isom
File size : 1.63 GiB
Duration : 1 h 5 min
Overall bit rate mode : Variable
Overall bit rate : 3 545 kb/s
Writing application : Lavf58.32.104

 WWE NXT

Video
ID : 1
Format : AVC
Format/Info : Advanced Video
Duration : 1 h 5 min
Bit rate : 3 372 kb/s
Width : 1 280 pixels
Height : 720 pixels
Display aspect ratio : 16:9
Frame rate mode : Constant
Frame rate : 30.000 FPS
Color space : YUV
Chroma subsampling : 4:2:0
Bit depth : 8 bits
Scan type : Progressive
Bits/(Pixel*Frame) : 0.122
Stream size : 1.54 GiB (94%)

  WWE NXT

Audio
ID : 2
Format : AAC LC
Format/Info : Advanced Audio
Codec ID : mp4a-40-2
Duration : 1 h 5 min
Bit rate mode : Variable
Bit rate : 192 kb/s
Maximum bit rate : 423 kb/s
Channel(s) : 2 channels
Channel layout : L R
Sampling rate : 48.0 kHz
Frame rate : 46.875 FPS
Compression mode : Lossy
Stream size : 90.6 MiB (5%)
Default : Yes
Alternate group : 1

Watch WWE NXT

Text
ID : 3
Format : Timed Text
Muxing mode : sbtl
Codec ID : tx3g
Duration : 1 h 5 min
Bit rate mode : Variable
Bit rate : 102 b/s
Stream size : 49.0 KiB (0%)
Language : English
Default : Yes
Forced : No
Alternate group : 3

 

 

https://dx-tv.com/

You May Also Like

Leave a Reply

Your email address will not be published. Required fields are marked *

This site uses Akismet to reduce spam. Learn how your comment data is processed.