WWE Main Event 2021 02 05 1080p DX-TV

Watch WWE

WWE Main Event 2021 02 05 1080p DX-TV

WWE Main Event 2021 

 WWE Main Event 2021 02 05

 

Download Links with premium High Speed   

 

 

dropapk.to

http://shrt10.com/Uaed35dvV
http://shrt10.com/P5xCwyB1G

 

 

nitroflare.com

http://shrt10.com/ppmyZlLV5
http://shrt10.com/qMeHpM47T

 

 

rapidgator.net

http://shrt10.com/nxo3A
http://shrt10.com/iy00dhqU

 

 

uploaded.net

http://shrt10.com/fAh5GIc
http://shrt10.com/KwQB1W

 

 

 

Watch WWE Main Event online

 

Server 1

 

 

 

 

WWE Main Event

 

 

 

 

Server-2

 

 

 

 

watch now

 

 

Uploaded By Site DX-TV.com

 

Complete name : WWE.Main.Event.2021.02.05.1080p.Hulu.x264-Star.mkv
Format : Matroska
Format version : Version 4
File size : 2.53 GiB
Duration : 44 min 41 s
Overall bit rate : 8 104 kb/s

WWE Main Event

Video
ID : 1
Format : AVC
Format/Info : Advanced Video
Duration : 44 min 41 s
Bit rate : 8 000 kb/s
Width : 1 920 pixels
Height : 1 080 pixels
Display aspect ratio : 16:9
Frame rate mode : Constant
Frame rate : 29.970 FPS
Color space : YUV
Chroma subsampling : 4:2:0
Bit depth : 8 bits
Scan type : Progressive
Bits/(Pixel*Frame) : 0.129
Stream size : 2.44 GiB (96%)
Forced : No
Color range : Limited
Color primaries : BT.709
Transfer characteristics : BT.709
Matrix coefficients : BT.709

WWE Main Event

Audio
ID : 2
Format : AC-3
Format/Info : Audio Coding 3
Commercial name : Dolby Digital
Codec ID : A_AC3
Duration : 44 min 41 s
Bit rate mode : Constant
Bit rate : 128 kb/s
Channel(s) : 2 channels
Channel layout : L R
Sampling rate : 48.0 kHz
Frame rate : 31.250 FPS
Compression mode : Lossy
Delay relative to video : -5 ms
Stream size : 40.9 MiB (2%)
Title : Stereo
Service kind : Complete Main
Default : Yes
Forced : No

WWE Main Event

Complete name : WWE.Main.Event.2021.02.05.720p.Hulu.x264-Star.mkv
Format : Matroska
Format version : Version 4
File size : 1.28 GiB
Duration : 44 min 41 s
Overall bit rate : 4 114 kb/s

Video
ID : 1
Format : AVC
Format/Info : Advanced Video
Duration : 44 min 41 s
Bit rate : 4 000 kb/s
Width : 1 280 pixels
Height : 720 pixels
Display aspect ratio : 16:9
Frame rate mode : Constant
Frame rate : 29.970 FPS
Color space : YUV
Chroma subsampling : 4:2:0
Bit depth : 8 bits
Scan type : Progressive
Bits/(Pixel*Frame) : 0.145
Stream size : 1.22 GiB (95%)
Forced : No
Color range : Limited
Color primaries : BT.709
Transfer characteristics : BT.709
Matrix coefficients : BT.709

WWE Main Event

Audio
ID : 2
Format : AC-3
Format/Info : Audio Coding 3
Commercial name : Dolby Digital
Codec ID : A_AC3
Duration : 44 min 41 s
Bit rate mode : Constant
Bit rate : 128 kb/s
Channel(s) : 2 channels
Channel layout : L R
Sampling rate : 48.0 kHz
Frame rate : 31.250 FPS
Compression mode : Lossy
Delay relative to video : -5 ms
Stream size : 40.9 MiB (3%)
Title : Stereo
Service kind : Complete Main
Default : Yes
Forced : No

WWE Main Event

 

https://dx-tv.com/

You May Also Like

Leave a Reply

Your email address will not be published. Required fields are marked *

This site uses Akismet to reduce spam. Learn how your comment data is processed.