Straight Up Steve Austin S02E03 Tiffany Haddish 720p

Straight Up Steve Austin S02E03 Tiffany Haddish 720p DX-TV

Straight Up Steve Austin

 Straight Up Steve Austin

 

Download Links with premium High Speed   

 

 

dropapk.to

http://shrt10.com/gkbQgxFGb

 

 

nitroflare.com

http://shrt10.com/wVKoqW

 

 

rapidgator.net

 

http://shrt10.com/BXvw1

 

uploaded.net

http://shrt10.com/NtuCNs

 

 

 

Watch Straight Up Steve Austin online

 

Server 1

 

 

 

 

Straight Up Steve Austin

 

 

 

 

Server-2

 

 

 

 

watch now

 

 

Uploaded By Site DX-TV.com

 

Complete name : Straight.Up.Steve.Austin.S02E03.Tiffany.Haddish.720p.HDTV.x264-NWCHD.mp4
Format : MPEG-4
Format profile : Base Media
File size : 718 MiB
Duration : 21 min 24 s
Overall bit rate mode : Variable
Overall bit rate : 4 689 kb/s

Straight Up Steve Austin

Video
ID : 1
Format : AVC
Format/Info : Advanced Video
Duration : 21 min 24 s
Bit rate : 4 500 kb/s
Width : 1 280 pixels
Height : 720 pixels
Display aspect ratio : 16:9
Frame rate mode : Constant
Frame rate : 29.970 FPS
Color space : YUV
Chroma subsampling : 4:2:0
Bit depth : 8 bits
Scan type : Progressive
Bits/(Pixel*Frame) : 0.163
Stream size : 687 MiB (96%)
Color range : Limited
Color primaries : BT.709
Transfer characteristics : BT.709
Matrix coefficients : BT.709
Codec configuration box : avcC

Straight Up  

Audio
ID : 2
Format : AAC LC
Format/Info : Advanced Audio
Codec ID : mp4a-40-2
Duration : 21 min 24 s
Bit rate mode : Variable
Bit rate : 192 kb/s
Channel(s) : 2 channels
Channel layout : L R
Sampling rate : 48.0 kHz
Frame rate : 46.875 FPS
Compression mode : Lossy
Stream size : 29.4 MiB (4%)
Title : Stereo
Language : English
Default : Yes
Alternate group : 1

 Up Steve Austin

Audio
ID : 2
Format : AAC LC
Format/Info : Advanced Audio
Codec ID : mp4a-40-2
Duration : 21 min 24 s
Bit rate mode : Variable
Bit rate : 192 kb/s
Channel(s) : 2 channels
Channel layout : L R
Sampling rate : 48.0 kHz
Frame rate : 46.875 FPS
Compression mode : Lossy
Stream size : 29.4 MiB (4%)
Title : Stereo
Language : English
Default : Yes
Alternate group : 1

Straight Up Steve  

Audio
ID : 2
Format : AAC LC
Format/Info : Advanced Audio
Codec ID : mp4a-40-2
Duration : 21 min 24 s
Bit rate mode : Variable
Bit rate : 192 kb/s
Channel(s) : 2 channels
Channel layout : L R
Sampling rate : 48.0 kHz
Frame rate : 46.875 FPS
Compression mode : Lossy
Stream size : 29.4 MiB (4%)
Title : Stereo
Language : English
Default : Yes
Alternate group : 1

 Up Steve Austin

 

https://dx-tv.com/

You May Also Like

Leave a Reply

Your email address will not be published. Required fields are marked *

This site uses Akismet to reduce spam. Learn how your comment data is processed.