Watch WWE Story Time S04E05 Dont Get Hot 1080p

WWE Story Time S04E05 Dont Get Hot 1080p DX-TV

Watch WWE Story Time S04E05

 

 Watch WWE Story Time S04E05
 


 

 

Watch WWE Story Time S04E05 Dont Get Hot 1080p

 

 

Complete name : WWE.Story.Time.S04E05.Dont.Get.Hot.1080p.WEBRip.h264-TJ.mp4
Format : MPEG-4
Format profile : Base Media
Codec ID : isom
File size : 795 MiB
Duration : 14 min 31 s
Overall bit rate mode : Variable
Overall bit rate : 7 661 kb/s
Writing application : Lavf58.25.100

Watch WWE Story Time S04E05

Video
ID : 1
Format : AVC
Duration : 14 min 31 s
Bit rate : 7 808 kb/s
Width : 1 920 pixels
Height : 1 080 pixels
Display aspect ratio : 16:9
Frame rate mode : Constant
Frame rate : 30.000 FPS
Color space : YUV
Chroma subsampling : 4:2:0
Bit depth : 8 bits
Scan type : Progressive
Bits/(Pixel*Frame) : 0.126
Stream size : 774 MiB (97%)

Watch WWE Story Time S04E05

Audio
ID : 2
Format : AAC LC
Format/Info : Advanced Audio
Codec ID : mp4a-40-2
Duration : 14 min 30 s
Bit rate mode : Variable
Bit rate : 192 kb/s
Maximum bit rate : 322 kb/s
Channel(s) : 2 channels
Channel layout : L R
Sampling rate : 48.0 kHz
Frame rate : 46.875 FPS
Compression mode : Lossy
Stream size : 20.1 MiB (3%)
Default : Yes
Alternate group : 1

 

 

 

 WWE Story Time S04E05 Dont Get Hot 1080p

 

Watch online

 

 

Server 1

 

 

 

 

Watch WWE Story Time S04E05

 

 

 

 

Server-2

 

 

 

watch now

 

 

 

 

 

 

Uploaded By Site DX-TV.com

 

 

 

 

Download Free Links with normal and high Speed [ more 14 hosts ]  

 

[su_expand more_text=”Show Hosts Info” less_text=”Close all Info” height=”30″ text_color=”#000000″ link_color=”#e25f8b” link_style=”button” more_icon=”icon: arrow-down” less_icon=”icon: arrow-up”]

 WWE Story Time S04E05

 

hexupload.net – clicknupload.co – www.multiup.org – uptobox.com – anonfiles.com – userscloud.com –

dropapk.to alfafile.net – ddownload.com – rockfile.co – 1fichier.com – filedown.org – katfile.com – filerio.in

 

 

[/su_expand]

 

 

 

http://shrt10.com/ekddYnqX
http://shrt10.com/mrCJd
http://shrt10.com/gDKFPSJ
http://shrt10.com/BLLOJ
http://shrt10.com/ZKEzj
http://shrt10.com/rM7rk5
http://shrt10.com/EQdw1NMps
http://shrt10.com/1DTEt6Z0b

 

 

 WWE Story Time S04E05

Download Links with premium High Speed   

 

 

 

 

dropapk.to

 

 

 

nitroflare.com

 

 

 

rapidgator.net

 

 

 

uploaded.net

 

 

 

uploadgig.com

 

 

 

 

 

dx-tv.com

 

urlfree.net

Leave a Reply

Your email address will not be published. Required fields are marked *

This site uses Akismet to reduce spam. Learn how your comment data is processed.