Free Wrestling Online AEW Countdown To Full Gear 2020

Watch Free Wrestling Online AEW Countdown To Full Gear 2020 1080p DX-TV

Free Wrestling Online AEW

 

 Free Wrestling Online AEW
 


 

 

Free Wrestling Online AEW Countdown To Full Gear 2020

 

Complete name : AEW.Countdown.To.Full.Gear.2020.FITE.1080p.WEBRip.h264-TJ.mp4
Format : MPEG-4
Format profile : Base Media
Codec ID : isom
File size : 1.37 GiB
Duration : 44 min 29 s
Overall bit rate : 4 401 kb/s
Writing application : Lavf57.83

Free Wrestling Online AEW

Video
ID : 1
Format : AVC
Duration : 44 min 29 s
Bit rate : 4 296 kb/s
Nominal bit rate : 4 800 kb/s
Width : 1 920 pixels
Height : 1 080 pixels
Display aspect ratio : 16:9
Frame rate mode : Constant
Frame rate : 29.970 FPS
Color space : YUV
Chroma subsampling : 4:2:0
Bit depth : 8 bits
Scan type : Progressive
Bits/(Pixel*Frame) : 0.069
Stream size : 1.33 GiB (98%)
Writing library : x264 core 152

Free Wrestling Online AEW

Audio
ID : 2
Format : AAC LC
Format/Info : Advanced Audio
Codec ID : mp4a-40-2
Duration : 44 min 29 s
Bit rate mode : Constant
Bit rate : 96.0 kb/s
Channel(s) : 2 channels
Channel layout : L R
Sampling rate : 48.0 kHz
Frame rate : 46.875 FPS
Compression mode : Lossy
Stream size : 30.6 MiB (2%)
Default : Yes
Alternate group : 1

 

What excites you most about the Full Gear card?

It’s the best card we’ve presented, top to bottom. Every match is really strong, and every match has potential to steal the show.

Shifting away from storyline and the in-ring product, how do you assess your COVID-19 policy.

  Wrestling Online AEW

and its implementation over the course of the pandemic?

I’m proud of the COVID testing policy we implemented.

We shut down the company entirely in the beginning of April and took that next month to develop a robust COVID testing protocol.

That has served us very well. Throughout the pandemic, we’ve maintained an amazing percentage of negatives, and I’m really proud of how hard our people have worked .

and put in the effort to distance and isolate in between shows to make this possible.

Robust testing has allowed the Dynamite franchise and pay-per-view franchise to remain strong, and we’re doing it safely.

 

Free Wrestling Online AEW Countdown To Full Gear 2020

 

Watch online

 

 

Server 1

 

 

 

 

Free Wrestling Online AEW

 

 

 

 

Server-2

 

 

 

watch now

 

 

 

 

 

 

Uploaded By Site DX-TV.com

 

 

 

 

Download Free Links with normal and high Speed [ more 14 hosts ]  

 

[su_expand more_text=”Show Hosts Info” less_text=”Close all Info” height=”30″ text_color=”#000000″ link_color=”#e25f8b” link_style=”button” more_icon=”icon: arrow-down” less_icon=”icon: arrow-up”]

 

 Wrestling Online AEW

hexupload.net – clicknupload.co – www.multiup.org – uptobox.com – anonfiles.com – userscloud.com –

dropapk.to alfafile.net – ddownload.com – rockfile.co – 1fichier.com – filedown.org – katfile.com – filerio.in

 

 

[/su_expand]

 

 

 

http://shrt10.com/o4JO95L
http://shrt10.com/05R4ylM8
http://shrt10.com/FdWxoSL
http://shrt10.com/WSxAY0LO3
http://shrt10.com/3Sio5EK
http://shrt10.com/nXnzTkC
http://shrt10.com/3kyjVVCQ
http://shrt10.com/5utfu

 

 

 

Download Links with premium High Speed   

 

 

 

 

dropapk.to

 

 

 

nitroflare.com

 

 

 

rapidgator.net

 

 

 

uploaded.net

 

 

 

uploadgig.com

 

 

 

 

 

dx-tv.com

 

urlfree.net

Leave a Reply

Your email address will not be published. Required fields are marked *

This site uses Akismet to reduce spam. Learn how your comment data is processed.