Watch WWE Network Swerve City Podcast E03 Toni Storm

WWE Network Swerve City Podcast E03 Toni Storm 1080p DX-TV

WWE Network Swerve City Podcast

 

 WWE Network Swerve City Podcast

 

Watch WWE Network Swerve City Podcast E03 Toni Storm

 

Complete name : WWE.Swerve.City.Podcast.E03.Toni.Storm.1080p.WEB.h264-HEEL.mp4
Format : MPEG-4
Format profile : Base Media
Codec ID : isom
File size : 4.02 GiB
Duration : 1 h 12 min
Overall bit rate : 7 979 kb/s
Writing application : Lavf58.32

WWE Network Swerve City Podcast

Video
ID : 1
Format : AVC
Duration : 1 h 12 min
Bit rate : 7 808 kb/s
Width : 1 920 pixels
Height : 1 080 pixels
Display aspect ratio : 16:9
Frame rate mode : Constant
Frame rate : 30.000 FPS
Color space : YUV
Chroma subsampling : 4:2:0
Bit depth : 8 bits
Scan type : Progressive
Bits/(Pixel*Frame) : 0.126
Stream size : 3.92 GiB (97%)

WWE Network Swerve City Podcast

Audio
ID : 2
Format : AAC LC
Format/Info : Advanced Audio
Codec ID : mp4a-40-2
Duration : 1 h 12 min
Bit rate mode : Constant
Bit rate : 192 kb/s
Channel(s) : 2 channels
Channel layout : L R
Sampling rate : 48.0 kHz
Frame rate : 46.875 FPS
Compression mode : Lossy
Stream size : 99.4 MiB (2%)
Default : Yes
Alternate group : 1

WWE Network Swerve City Podcast

Scott and Monteasy Scott are the hosts of the Swerve City podcast.

Scott unsuccessfully challenged for Santos Escobar’s NXT Cruiserweight Championship at NXT TakeOver 31 earlier this month.

On NXT this week, Scott backed up Ashante “Thee” Adonis and Jake .

Atlas when they were about to be attacked by Legado del Fantasia (Escobar, Raul Mendoza, and Joaquin Wilde).

 

Watch WWE Network Swerve City Podcast E03 Toni Storm

 

 

Watch online

 

 

 

Server 1

 

 

 

 

WWE Network Swerve City Podcast

 

 

 

 

Server-2

 

 

 

watch now

 

 

 

 

 

 

Uploaded By Site DX-TV.com

 

 

 

 

Download Free Links with normal and high Speed [ more 14 hosts ]  

 

[su_expand more_text=”Show Hosts Info” less_text=”Close all Info” height=”30″ text_color=”#000000″ link_color=”#e25f8b” link_style=”button” more_icon=”icon: arrow-down” less_icon=”icon: arrow-up”]

 

 Network Swerve City Podcast

hexupload.net – clicknupload.co – www.multiup.org – uptobox.com – anonfiles.com – userscloud.com –

 

 

[/su_expand]

 

 

 

http://shrt10.com/JyMQMuup
http://shrt10.com/MmybTzGUF
http://shrt10.com/VhshLc8V7
http://shrt10.com/Yf4ir
http://shrt10.com/LTQ0A
http://shrt10.com/TKOOS0

 

 

 

Download Links with premium High Speed   

 

 

 

 

dropapk.to

 

 

 

nitroflare.com

 

 

 

rapidgator.net

 

 

 

uploaded.net

 

 

 

uploadgig.com

 

 

 

 

 

dx-tv.com

 

urlfree.net

You May Also Like

Leave a Reply

Your email address will not be published. Required fields are marked *

This site uses Akismet to reduce spam. Learn how your comment data is processed.