Watch WWE Steve Austins Broken Skull S01E03 Kane 1080p

Watch WWE Steve Austins Broken Skull S01E03 Kane 1080p DX-TV

 

 

WWE

 

 

 

 

dx-tv.com

 

 

 

 

Watch WWE Steve Austins Broken Skull S01E03 Kane 1080p

 

 

 

 

 

Complete name : WWE.Steve.Austins.Broken.Skull.Sessions.S01E03.Kane.1080p.WEB.h264-HEEL.mp4
Format : MPEG-4
Format profile : Base Media
File size : 4.43 GiB
Duration : 1 h 19 min
Overall bit rate : 7 965 kb/s
Writing application : Lavf58.32.104

Video
ID : 1
Format : AVC
Duration : 1 h 19 min
Bit rate : 7 808 kb/s
Width : 1 920 pixels
Height : 1 080 pixels
Display aspect ratio : 16:9
Frame rate mode : Constant
Frame rate : 30.000 FPS
Color space : YUV
Chroma subsampling : 4:2:0
Bit depth : 8 bits
Scan type : Progressive
Bits/(Pixel*Frame) : 0.126
Stream size : 4.31 GiB (97%)
Audio
ID : 2
Format : AAC LC
Format/Info : Advanced Audio Codec Low Complexity
Codec ID : mp4a-40-2
Duration : 1 h 19 min
Bit rate mode : Constant
Bit rate : 192 kb/s
Channel(s) : 2 channels
Channel layout : L R
Sampling rate : 48.0 kHz
Frame rate : 46.875 FPS (1024 SPF)
Compression mode : Lossy
Stream size : 110 MiB (2%)
Default : Yes
Alternate group : 1

 

 

 

 

 

 

Watch online

 

 

Server 1

 

 

 

 

 

 

 

 

 

 

 

 

 

Server 2

 

 

 

 

 

 

 

 

 

 

Server–3

 

 

 

 

 

 

 

 

Watch WWE Steve Austins Broken Skull S01E03 Kane 1080p

 

 

 

Uploaded By Site DX-TV.com

 

 

 

 

Download VIP Members FTP Link and Free Links 

 

 

Limited Time will be removed after 30 days if you need available again pm email admin

 

[member]
 

 

 

FTP Link Download high speed

 

[/member]
 

1fichier.com 

 

earn4files.com

 

 

dl.free.fr

 

 

Download with premium account Links 

 

 

nitroflare.com

 

 

rapidgator.net

 

 

uploaded.net