Watch Dragon Gate Open the New Year 2020 01 12 Day 2

Watch Dragon Gate Open the New Year 2020 01 12 Day 2 720p DX-TV

 

 

Dragon Gate

 

 

 

 

dx-tv.com

 

 

 

 

Watch Dragon Gate Open the New Year 2020 01 12 Day 2 720p

 

 

 

 

 

Complete name : Dragon.Gate.2020.01.12.Open.the.New.Year.Gate.2020.Day.2.720p.WEB-DL.x264-ENP.mp4
Format : MPEG-4
Format profile : Base Media
File size : 3.01 GiB
Duration : 2 h 52 min
Overall bit rate mode : Variable
Overall bit rate : 2 493 kb/s
Writing application : Lavf58.20.100

Video
ID : 1
Format : AVC
Duration : 2 h 52 min
Bit rate mode : Variable
Bit rate : 2 306 kb/s
Maximum bit rate : 2 703 kb/s
Width : 1 280 pixels
Height : 720 pixels
Display aspect ratio : 16:9
Frame rate mode : Variable
Frame rate : 28.392 FPS
Minimum frame rate : 0.166 FPS
Maximum frame rate : 76.923 FPS
Original frame rate : 30.000 FPS
Standard : NTSC
Color space : YUV
Chroma subsampling : 4:2:0
Bit depth : 8 bits
Scan type : Progressive
Bits/(Pixel*Frame) : 0.088
Stream size : 2.78 GiB (92%)
Color range : Limited
Color primaries : BT.709
Transfer characteristics : BT.709
Matrix coefficients : BT.709
Codec configuration box : avcC

Audio
ID : 2
Format : AAC LC
Format/Info : Advanced Audio Codec Low Complexity
Codec ID : mp4a-40-2
Duration : 2 h 52 min
Bit rate mode : Variable
Bit rate : 180 kb/s
Maximum bit rate : 187 kb/s
Channel(s) : 2 channels
Channel layout : L R
Sampling rate : 48.0 kHz
Frame rate : 46.875 FPS (1024 SPF)
Compression mode : Lossy
Stream size : 222 MiB (7%)
Default : Yes
Alternate group : 1

 

 

Watch online

 

Server 1

 

 

 

 

 

 

 

 

 

 

Server 2

 

 

 

 

 

 

 

 

 

 

Server–3

 

 

 

 

 

 

 

 

Watch Dragon Gate Open the New Year 2020 01 12 Day 2 720p

 

 

 

Uploaded By Site DX-TV.com

 

 

 

 

Download VIP Members FTP Link and Free Links 

 

 

Limited Time will be removed after 30 days if you need available again pm email admin

 

This section is only available to registered users.

1fichier.com 

 

 

 

dailyuploads.net

 

 

earn4files.com

 

 

dl.free.fr

 

 

Download with premium account Links 

 

 

nitroflare.com

 

 

rapidgator.net

 

 

uploaded.net

 

 

 

 

 

 

 

 

 

Categories



Archives