Watch WWE Steve Austins Broken Skull S01E03 Kane

Watch Online WWE Steve Austins Broken Skull Sessions S01E03 Kane 720p DX-TV

 

 

WWE

 

 

 

 

dx-tv.com

 

 

 

 

Watch Online WWE Steve Austins Broken Skull Sessions S01E03 Kane 720p

 

 

 

 

Complete name : WWE.Steve.Austins.Broken.Skull.Sessions.S01E03.Kane.720p.Hi.WEB.h264-HEEL.mp4
Format : MPEG-4
Format profile : Base Media
Codec ID : isom (isom/iso2/avc1/mp41)
File size : 1.97 GiB
Duration : 1 h 19 min
Overall bit rate : 3 554 kb/s
Writing application : Lavf58.32.104

Video
ID : 1
Format : AVC
Bit rate : 3 372 kb/s
Width : 1 280 pixels
Height : 720 pixels
Display aspect ratio : 16:9
Frame rate mode : Constant
Frame rate : 30.000 FPS
Color space : YUV
Chroma subsampling : 4:2:0
Bit depth : 8 bits
Scan type : Progressive
Bits/(Pixel*Frame) : 0.122
Stream size : 1.86 GiB (94%)

Audio
ID : 2
Format : AAC LC
Format/Info : Advanced Audio Codec Low Complexity
Codec ID : mp4a-40-2
Duration : 1 h 19 min
Bit rate mode : Constant
Bit rate : 192 kb/s
Channel(s) : 2 channels
Channel layout : L R
Sampling rate : 48.0 kHz
Frame rate : 46.875 FPS (1024 SPF)
Compression mode : Lossy
Stream size : 110 MiB (5%)
Default : Yes
Alternate group : 1

 

 

 

 

 

 

Watch online

 

 

Server 1

 

 

 

 

 

 

 

 

 

 

 

 

 

Server 2

 

 

 

 

 

 

 

 

 

 

Server–3

 

 

 

 

 

 

 

 

Watch Online WWE Steve Austins Broken Skull Sessions S01E03 Kane 720p

 

 

 

Uploaded By Site DX-TV.com

 

 

 

 

Download VIP Members FTP Link and Free Links 

 

 

Limited Time will be removed after 30 days if you need available again pm email admin

 

[member]
 

 

 

FTP Link Download high speed

 

[/member]
 

1fichier.com 

 

 

 

dailyuploads.net

 

 

earn4files.com

 

 

dl.free.fr

 

 

Download with premium account Links 

 

 

nitroflare.com

 

 

rapidgator.net

 

 

uploaded.net

 

 

 

 

 

 

 

 

 

 96 total views,  1 views today

%d bloggers like this:
Optimized with PageSpeed Ninja