Watch WWE Raw Free Online 2020 10 12

WWE Monday Night Raw 2020 10 12 HDTV Star DX-TV

 

Watch WWE Raw Free Online

 

 Watch WWE Raw Free Online
 


 

 

Watch WWE Raw Free Online 2020 10 12

 

 

Complete name : WWE.Monday.Night.Raw.2020.10.12.HDTV.x264-Star.mp4
Format : MPEG-4
Format profile : Base Media
Codec ID : mp42
File size : 1.35 GiB
Duration : 2 h 11 min
Overall bit rate : 1 474 kb/s

Watch WWE Raw Free Online

Video
ID : 1
Format : AVC
Duration : 2 h 11 min
Bit rate : 1 300 kb/s
Width : 720 pixels
Height : 480 pixels
Display aspect ratio : 16:9
aspect rat : 16:9
Frame rate mode : Constant
Frame rate : 29.970 FPS
Standard : NTSC
Color space : YUV
Chroma subsampling : 4:2:0
Bit depth : 8 bits
Scan type : Progressive
Bits/(Pixel*Frame) : 0.126
Stream size : 1.20 GiB (89%)
Color range : Limited
Color primaries : BT.601 NTSC
Transfer characteristics : BT.709
Matrix coefficients : BT.601
Codec configuration box : avcC

Watch WWE Raw Free Online

Audio
ID : 2
Format : AAC LC
Format/Info : Advanced Audio
Codec ID : mp4a-40-2
Duration : 2 h 11 min
Bit rate mode : Constant
Bit rate : 161 kb/s
Channel(s) : 2 channels
Channel layout : L R
Sampling rate : 48.0 kHz
Frame rate : 46.875 FPS (1024 SPF)
Compression mode : Lossy
Stream size : 151 MiB (11%)
Title : Stereo
Default : Yes
Alternate group : 1

Watch WWE Raw Free Online

Seth Rollins bids farewell to Raw

 

Seth Rollins was Raw’s first overall pick of the 2016 WWE Brand Extension Draft. In the four years since,

Rollins has been a mainstay on Mondays and even had the nickname “The Monday Night Messiah.”

But on the first night of the WWE Draft, SmackDown selected Rollins, bringing his time on Raw to a close. 

The Monday Night Messiah will be live this Monday at 8/7 C on USA Network .

to say goodbye and give his thoughts on the future of Raw.

Watch WWE Raw Free Online

Dual-Brand Women’s Battle Royal for Raw Women’s Championship Match

Is anyone ready for Asuka? Superstars from both Raw and SmackDown .

will step up to prove it this Monday in a Dual-Brand Battle Royal with .

a future Raw Women’s Championship opportunity on the line. 

Which Superstar — from which brand?! — be the last woman standing to earn a Title Match against .

The Empress? Find out this Monday on Raw, live on USA Network at 8/7 C

 

Watch WWE Raw Free Online 2020 10 12

 

Watch online

 

 

 

Server 1

 

 

 

 

watch now

 

 

 

 

Server-2

 

 

 

Watch WWE Raw Free Online

 

 

 

 

Server-3

 

 

 

watch now

 

 

 

 

Uploaded By Site DX-TV.com

 

 

 

 

Download Free Links with normal and high Speed [ more 14 hosts ]  

 

 

 

 

http://shrt10.com/s6nXmeZ
http://shrt10.com/eVkODp3h
http://shrt10.com/ujGww1xt
http://shrt10.com/r3TMe5
http://shrt10.com/g1WdSrM
http://shrt10.com/p4YRrjd4
http://shrt10.com/R3px1DP
http://shrt10.com/JZUvWJ
http://shrt10.com/f8h5HwZdZ
http://shrt10.com/JMaSascEL
http://shrt10.com/Zl6A5
http://shrt10.com/CO2fzuY

 

 

 

Download Links with premium High Speed   

 

 

 

dropapk.to

 

 

 

nitroflare.com

 

 

 

rapidgator.net

 

 

 

uploaded.net

 

 

 

uploadgig.com

 

 

 

 

 

dx-tv.com

 

urlfree.net

Leave a Reply

Your email address will not be published. Required fields are marked *

This site uses Akismet to reduce spam. Learn how your comment data is processed.