Download Free WWE Raw 720p 2020 10 12

WWE Monday Night Raw 2020 10 12 720p HDTV Star DX-TV

 

WWE Raw 720p 2020 10 12

 

 WWE Raw 720p 2020 10 12
 


 

 

Download Free WWE Raw 720p 2020 10 12

 

 

 

 

Complete name : WWE.Monday.Night.Raw.2020.10.12.720p.HDTV.x264-Star.mkv
Format : Matroska
Format version : Version 4
File size : 4.78 GiB
Duration : 2 h 11 min
Overall bit rate : 5 212 kb/s
Writing library : Lavf58

WWE Raw 720p 2020 10 12

Video
ID : 1
Format : AVC
Duration : 2 h 11 min
Bit rate : 5 000 kb/s
Width : 1 280 pixels
Height : 718 pixels
Display aspect ratio : 16:9
Frame rate mode : Constant
Frame rate : 29.970 FPS
Color space : YUV
Chroma : 4:2:0
Bit depth : 8 bits
Scan type : Progressive
Bits/(Pixel*Frame) : 0.182
Stream size : 4.51 GiB
Forced : No
Color range : Limited
Color primaries : BT.709
Transfer characteristics : BT.709
Matrix coefficients : BT.709

WWE Raw 720p 2020 10 12

Audio
ID : 2
Format : AC-3
Format/Info : Audio
Commercial name : Dolby
Codec ID : A_AC3
Duration : 2 h 11 min
Bit rate mode : Constant
Bit rate : 192 kb/s
Channel(s) : 2 channels
Channel layout : L R
Sampling rate : 48.0 kHz
Frame rate : 31.250 FPS
Compression mode : Lossy
Delay relative to video : -5 ms
Stream size : 180 MiB (4%)
Title : Stereo
Service kind : Complete Main
Default : Yes
Forced : No

WWE Raw 720p 2020 10 12

Kevin Owens to face Aleister Black in a No Disqualification Match

 

Kevin Owens and Aleister Black have been at odds since Black returned and attacked Owens on the KO Show on Aug. 24.

From battling inside Raw Underground to surprise Black Mass attacks, this rivalry has been brutal.

It will get more intense live this Monday on Raw when they collide in a No Disqualification Match.

Which brawler will have his hand raised? Find out on Raw, live on Monday at 8/7 C on USA Network.

 

Download Free WWE Raw 720p 2020 10 12

 

Watch online

 

 

Server 1

 

 

 

 

WWE Raw 720p 2020 10 12

 

 

 

 

Server-2

 

 

 

watch now

 

 

 

 

Server-3

 

 

 

watch now

 

 

 

 

Uploaded By Site DX-TV.com

 

 

 

 

Download Free Links with normal and high Speed [ more 14 hosts ]  

 

 

 

 

http://shrt10.com/LjJ9X
http://shrt10.com/1jHCSr
http://shrt10.com/BKHJzl7
http://shrt10.com/xdTr83
http://shrt10.com/sIk5M
http://shrt10.com/3967VoxmV
http://shrt10.com/sTxVC
http://shrt10.com/LKOcrN

 

 

 

Download Links with premium High Speed   

 

 

 

 

dropapk.to

 

 

 

nitroflare.com

 

 

 

rapidgator.net

 

 

 

uploaded.net

 

 

 

uploadgig.com

 

 

WWE Raw 720p 2020 10 12

 

 

dx-tv.com

 

urlfree.net

Leave a Reply

Your email address will not be published. Required fields are marked *

This site uses Akismet to reduce spam. Learn how your comment data is processed.