NJPW Day 14 English G1 Climax 30 2020 Free Online

Watch NJPW Day 14 English G1 Climax 30 2020 10 11 720p DX-TV

 

NJPW Day 14 English G1 Climax 30

 

 NJPW Day 14 English G1 Climax 30
 


 

 

NJPW Day 14 English G1 Climax 30 2020 Free Online

 

Complete name : NJPW.2020.10.11.G1.Climax.30.Day.14.ENGLISH.720p.WEB.h264-LATE.mkv
Format : Matroska
Format version : Version 4
File size : 1.93 GiB
Duration : 2 h 18 min
Overall bit rate : 2 005 kb/s

NJPW Day 14 English G1 Climax 30

Video
ID : 1
Format : AVC
Format/Info : Advanced  
Duration : 2 h 18 min
Bit rate : 1 904 kb/s
Width : 1 280 pixels
Height : 720 pixels
Display aspect ratio : 16:9
Frame rate mode : Constant
Frame rate : 30.000 FPS
Color space : YUV
Chroma subsampling : 4:2:0
Bit depth : 8 bits
Scan type : Progressive
Bits/(Pixel*Frame) : 0.069
Stream size : 1.84 GiB (95%)

NJPW Day 14 English G1 Climax 30

Audio
ID : 2
Format : AAC LC
Format/Info : Advanced
Codec ID : A_AAC-2
Duration : 2 h 18 min
Bit rate : 96.0 kb/s
Channel(s) : 2 channels
Channel layout : L R
Sampling rate : 44.1 kHz
Frame rate : 43.066 FPS (1024 SPF)
Compression mode : Lossy
Delay relative to video : -23 ms
Stream size : 95.3 MiB (5%)
Default : Yes
Forced : No

NJPW Day 14 English G1 Climax 30

Hiroshi Tanahashi (3-3) vs Hirooki Goto (3-3)

Singles record: 11-1 Tanahashi G1 record: 4-0 Tanahashi

 

Sunday will see the first singles confrontation between Hirooki Goto,

and Hiroshi Tanahashi in over three years, a departure that Goto is likely grateful for.

As one sided a record as you will find in singles competition, Goto has had just one victory over the Ace in 12 singles matches.

Goto was part of a famously impressive 2002 class in the NJPW Dojo,

with 1999 debutant Tanahashi being the clear senpai to Goto throughout their respective careers. 

A memorable first IWGP Heavyweight Championship challenge in November 2007 in Ryogoku being a particular highlight.

NJPW Day 14 English G1 Climax 30

Yet results everywhere except from the 2012 New Japan Cup final have been elusive for Goto.

Goto and Tanahashi have a long history opposite one another they’re fighting tonight for the immediate future of the final weekend. 

Juice Robinson (3-3) vs SANADA (3-3)

Singles record: 1-1 (2017, 2018 G1s)

G1 CLIMAX 30 Day 14

Juice Robinson and SANADA walk into this crucial meeting in Aichi with ,

an even shoreline against one another and in their respective campaigns. 

After a slow start saw him go 0-3, SANADA picked up wins over Tetsuya Naito, Zack Sabre Jr.

and then KENTA to go even, while Juice’s first six matches were almost the opposite,

a hot start now seeing back to back losses to Hiroshi Tanahashi and Tetsuya Naito.

 

NJPW Day 14 English G1 Climax 30 2020 Free Online

 

 

 

 

Watch online

 

 

 

 

 

Server 1

 

 

 

 

watch now

 

 

 

 

Server-2

 

 

 

watch now

 

 

 

 

Server-3

 

 

 

NJPW Day 14 English G1 Climax 30

 

 

 

 

Uploaded By Site DX-TV.com

 

 

 

 

Download Free Links with normal and high Speed [ more 14 hosts ]  

 

 

 

 

http://shrt10.com/NA9cGKX1
http://shrt10.com/ePuYkY
http://shrt10.com/4bjdV
http://shrt10.com/6Nj3TAAu
http://shrt10.com/SfymjK
http://shrt10.com/YAuBO6B
http://shrt10.com/37NkwfO
http://shrt10.com/VHANYyS
http://shrt10.com/fREFfiE
http://shrt10.com/tHwt4e
http://shrt10.com/5wwDEYsr
http://shrt10.com/KQjNdQ

 

 

 

Download Links with premium High Speed   

 

 

 

 

dropapk.to

 

 

 

nitroflare.com

 

 

 

rapidgator.net

 

 

 

uploaded.net

 

 

 

uploadgig.com

 

 

 

 

 

dx-tv.com

 

urlfree.net

Leave a Reply

Your email address will not be published. Required fields are marked *

This site uses Akismet to reduce spam. Learn how your comment data is processed.