Watch WWE NXT UK TakeOver Blackpool 2020 Pre Show

Watch Online WWE NXT UK TakeOver Blackpool 2020 Pre Show 1080p DX-TV

 

 

WWE NXT UK

 

 

 

 

dx-tv.com

 

 

 

 

Watch Online WWE NXT UK TakeOver Blackpool 2020 Pre Show 1080p

 

 

 

 

 

Complete name : WWE.NXT.UK.TakeOver.Blackpool.2020.Pre.Show.1080p.WEB.h264-HEEL.mp4
Format : MPEG-4
Format profile : Base Media
File size : 1.17 GiB
Duration : 29 min 18 s
Overall bit rate : 5 715 kb/s
Writing application : Lavf58.32.104

Video
ID : 1
Format : AVC
Duration : 29 min 18 s
Bit rate : 5 579 kb/s
Width : 1 920 pixels
Height : 1 080 pixels
Display aspect ratio : 16:9
Frame rate mode : Variable
Frame rate : 30.000 FPS
Minimum frame rate : 29.412 FPS
Maximum frame rate : 30.303 FPS
Color space : YUV
Chroma subsampling : 4:2:0
Bit depth : 8 bits
Scan type : Progressive
Bits/(Pixel*Frame) : 0.090
Stream size : 1.14 GiB (98%)
Codec configuration box : avcC

Audio
ID : 2
Format : AAC LC
Format/Info : Advanced Audio Codec Low Complexity
Codec ID : mp4a-40-2
Duration : 29 min 18 s
Bit rate mode : Constant
Bit rate : 125 kb/s
Channel(s) : 2 channels
Channel layout : L R
Sampling rate : 48.0 kHz
Frame rate : 46.875 FPS (1024 SPF)
Compression mode : Lossy
Stream size : 26.3 MiB (2%)
Default : Yes
Alternate group : 1

Text #1
ID : 1-CC1
Format : EIA-608
Muxing mode : SCTE 128 / DTVCC Transport
Muxing mode, more info : Muxed in Video #1
Duration : 29 min 18 s
Bit rate mode : Constant
Stream size : 0.00 Byte (0%)
CaptionServiceName : CC1

Text #2
ID : 1-CC3
Format : EIA-608
Muxing mode : SCTE 128 / DTVCC Transport
Muxing mode, more info : Muxed in Video #1
Duration : 29 min 18 s
Bit rate mode : Constant
Stream size : 0.00 Byte (0%)
CaptionServiceName : CC3

Text #3
ID : 1-1
Format : EIA-708
Muxing mode : SCTE 128 / DTVCC Transport
Muxing mode, more info : Muxed in Video #1
Duration : 29 min 18 s
Bit rate mode : Constant
Stream size : 0.00 Byte (0%)

Text #4
ID : 1-2
Format : EIA-708
Muxing mode : SCTE 128 / DTVCC Transport
Muxing mode, more info : Muxed in Video #1
Duration : 29 min 18 s
Bit rate mode : Constant
Stream size : 0.00 Byte (0%)

 

 

 

 

 

 

Watch online

 

 

Server 1

 

 

 

 

 

 

 

 

 

 

 

Server 2

 

 

 

 

 

 

 

 

 

 

Server–3

 

 

 

 


 

 

 

 

Watch Online WWE NXT UK TakeOver Blackpool 2020 Pre Show 1080p

 

 

 

Uploaded By Site DX-TV.com

 

 

 

 

 

Download VIP Members FTP server Download 1 Link and Free Links 

 

 

 

Limited Time will be removed after 90 days if you need available again pm email admin

 

This section is only available to registered users.

 

1fichier.com 

 

 

dailyuploads.net

 

 

earn4files.com

 

 

katfile.com

 

 

rockfile.co

 

 

Ubloadbank.com

 

 

 

 

Download with premium account Links 

 

 

nitroflare.com

 

 

rapidgator.net

 

 

uploaded.net

 

 

 

Categories



Archives