Top Rank Boxing ON ESPN 20120/01/11 HDTV DX-TV

Watch Online Top Rank Boxing ON ESPN 20120/01/11 HDTV 540p DX-TV

 

 

 

 

 

 

dx-tv.com

 

 

 

 

Top Rank Boxing ON ESPN 20120/01/11 HDTV DX-TV

 

 

 

 

 

Complete name : Top Rank Boxing on ESPN 01-11-20120 HDTV.mp4
Format : MPEG-4
Format profile : Base Media
Codec ID : mp42 (mp42)
File size : 1.53 GiB
Duration : 1 h 42 min
Overall bit rate : 2 135 kb/s

Video
ID : 1
Format : AVC
Duration : 1 h 42 min
Bit rate : 2 000 kb/s
Width : 960 pixels
Height : 540 pixels
Display aspect ratio : 16:9
Frame rate mode : Constant
Frame rate : 30.000 FPS
Color space : YUV
Chroma subsampling : 4:2:0
Bit depth : 8 bits
Scan type : Progressive
Bits/(Pixel*Frame) : 0.129
Stream size : 1.43 GiB (94%)
Language : English
Codec configuration box : avcC

Audio
ID : 2
Format : AAC LC
Codec ID : mp4a-40-2
Duration : 1 h 42 min
Bit rate mode : Constant
Bit rate : 128 kb/s
Channel(s) : 2 channels
Channel layout : L R
Sampling rate : 44.1 kHz
Frame rate : 43.066 FPS (1024 SPF)
Compression mode : Lossy
Stream size : 94.0 MiB (6%)
Title : Stereo
Language : English
Default : Yes
Alternate group : 1

 

 

 

Watch online

 

Server 1

 

watch now

 

 

 

 

 

Top Rank Boxing ON ESPN 20120/01/11 HDTV DX-TV

 

 

 

Uploaded By Site DX-TV.com

 

 

 

 

 

Download VIP Members FTP server Download 1 Link and Free Links 

 

 

 

Limited Time will be removed after 90 days if you need available again pm email admin

 

[member]
 

 

FTP Link Download high speed

[/member]
 

1fichier.com 

 

 

dailyuploads.net

 

 

dl.free.fr

 

 

earn4files.com

 

 

katfile.com

 

 

rockfile.co

 

 

Ubloadbank.com

 

 

 

 

Download with premium account Links 

 

 

nitroflare.com

 

 

rapidgator.net

 

 

uploaded.net

 

 

 

 

 24 total views,  1 views today

%d bloggers like this:
Optimized with PageSpeed Ninja