Watch WWE NXT UK TakeOver Blackpool 2020 720p

Watch Online WWE NXT UK TakeOver Blackpool PPV 2020 720p DX-TV

 

 

WWE NXT UK TakeOver Blackpool

 

 

 

 

dx-tv.com

 

 

 

 

Watch Online WWE NXT UK TakeOver Blackpool PPV 2020 720p

 

 

 

 

 

Complete name : WWE NXT UK TakeOver Blackpool PPV 2020 720p WEB x264 DX-TV .mp4
Format : MPEG-4
Format profile : Base Media
File size : 3.33 GiB
Duration : 2 h 30 min
Overall bit rate : 3 169 kb/s
Writing application : Lavf58.25.100

Video
ID : 1
Format : AVC
Duration : 2 h 30 min
Bit rate : 3 000 kb/s
Width : 1 280 pixels
Height : 720 pixels
Display aspect ratio : 16:9
Frame rate mode : Constant
Frame rate : 30.000 FPS
Color space : YUV
Chroma subsampling : 4:2:0
Bit depth : 8 bits
Scan type : Progressive
Bits/(Pixel*Frame) : 0.109
Stream size : 3.16 GiB (95%)

Audio
ID : 2
Format : AAC LC
Format/Info : Advanced Audio Codec Low Complexity
Codec ID : mp4a-40-2
Duration : 2 h 30 min
Bit rate mode : Constant
Bit rate : 160 kb/s
Channel(s) : 2 channels
Channel layout : L R
Sampling rate : 44.1 kHz
Frame rate : 43.066 FPS (1024 SPF)
Compression mode : Lossy
Stream size : 173 MiB (5%)
Default : Yes
Alternate group : 1

 

 

All links uploaded and watching online too

 

 

 

Watch online

 

 

Waiting finish converting video

 

 

Server 1

 

 

 

watch now

 

 

 

Uploaded By Site DX-TV.com

 

 

Watch WWE NXT UK TakeOver Blackpool 2020 720p

 

 

Download VIP Members FTP server Download 1 Link and Free Links 

 

 

 

Limited Time will be removed after 90 days if you need available again pm email admin

 

[member]

FTP Link Download high speed

[/member]

1fichier.com 

 

 

dl.free.fr

 

 

earn4files.com

 

 

 

 

Download with premium account Links 

 

 

nitroflare.com

 

 

rapidgator.net

 

 

uploaded.net

 

 

 

 

 

 

 

 

 

%d bloggers like this: