Watch Online WWE NXT UK TakeOver Blackpool 2020

Watch Online WWE NXT UK TakeOver Blackpool 2020 HEEL DX-TV

 

 

WWE NXT UK TakeOver Blackpool

 

 

 

 

dx-tv.com

 

 

 

 

Watch Online WWE NXT UK TakeOver Blackpool 2020

 

 

 

Complete name : WWE.NXT.UK.TakeOver.Blackpool.2020.WEB.h264-HEEL.mp4
Format : MPEG-4
Format profile : Base Media
Codec ID : isom (isom/iso2/avc1/mp41)
File size : 1.76 GiB
Duration : 2 h 32 min
Overall bit rate mode : Variable
Overall bit rate : 1 649 kb/s
Writing application : Lavf58.32.104

Video
ID : 1
Format : AVC
Duration : 2 h 32 min
Bit rate mode : Variable
Bit rate : 1 516 kb/s
Maximum bit rate : 1 663 kb/s
Width : 896 pixels
Height : 504 pixels
Display aspect ratio : 16:9
Frame rate mode : Variable
Frame rate : 30.000 FPS
Minimum frame rate : 29.412 FPS
Maximum frame rate : 30.303 FPS
Standard : NTSC
Color space : YUV
Chroma subsampling : 4:2:0
Bit depth : 8 bits
Scan type : Progressive
Bits/(Pixel*Frame) : 0.112
Stream size : 1.62 GiB (92%)
Color range : Limited

Audio
ID : 2
Format : AAC LC
Codec ID : mp4a-40-2
Duration : 2 h 32 min
Bit rate mode : Variable
Bit rate : 125 kb/s
Maximum bit rate : 140 kb/s
Channel(s) : 2 channels
Channel layout : L R
Sampling rate : 48.0 kHz
Frame rate : 46.875 FPS (1024 SPF)
Compression mode : Lossy
Stream size : 137 MiB (8%)
Default : Yes
Alternate group : 1

Text #1
ID : 1-CC1
Format : EIA-608
Muxing mode : SCTE 128 / DTVCC Transport
Muxing mode, more info : Muxed in Video #1
Duration : 2 h 32 min
Bit rate mode : Constant
Stream size : 0.00 Byte (0%)
CaptionServiceName : CC1

Text #2
ID : 1-CC3
Format : EIA-608
Muxing mode : SCTE 128 / DTVCC Transport
Muxing mode, more info : Muxed in Video #1
Duration : 2 h 32 min
Bit rate mode : Constant
Stream size : 0.00 Byte (0%)
CaptionServiceName : CC3

Text #3
ID : 1-1
Format : EIA-708
Muxing mode : SCTE 128 / DTVCC Transport
Muxing mode, more info : Muxed in Video #1
Duration : 2 h 32 min
Bit rate mode : Constant
Stream size : 0.00 Byte (0%)

 

 

 

 

Watch online

 

 

Waiting finish converting video

 

 

Server 1

 

 

 

watch now

 

 

 

Watch Online WWE NXT UK TakeOver Blackpool 2020

 

 

 

Uploaded By Site DX-TV.com

 

 

 

 

 

Download VIP Members FTP server Download 1 Link and Free Links 

 

 

 

Limited Time will be removed after 90 days if you need available again pm email admin

 

This section is only available to registered users.

 

 

1fichier.com 

 

 

dailyuploads.net

 

earn4files.com

 

 

katfile.com

 

 

rockfile.co

 

Ubloadbank.com

 

 

 

 

Download with premium account Links 

 

 

nitroflare.com

 

 

rapidgator.net

 

 

uploaded.net

 

 

 

 

 

 

 

 

 

Categories



Archives