Watch WWE Elimination Chamber 2020 PPV 720p HDTV Star

WWE Elimination Chamber 2020 PPV 720p HDTV Star DX-TV

 

Watch

 WWE Elimination Chamber 2020

 

 

Watch WWE Elimination Chamber 2020 PPV 720p HDTV Star

 

 

Complete name : WWE.Elimination.Chamber.2020.PPV.720p.HDTV.x264-Star.mkv
Format : Matroska
Format version : Watch
File size : 9.82 GiB
Duration : 3 h 40 min
Overall bit rate : 6 388 kb/s

Video
ID : 1
Format : AVC
Codec ID : Watch
Duration : 3 h 40 min
Bit rate : 6 000 kb/s
Width : 1 280 pixels
Height : 720 pixels
Display aspect ratio : 16:9
Frame rate mode : Constant
Frame rate : 59.940 (60000/1001) FPS
Color space : Watch
Chroma subsampling : 4:2:0
Bit depth : 8 bits
Scan type : Progressive
Bits/(Pixel*Frame) : 0.109
Stream size : 9.04 GiB (92%)
Color range : Watch
Color primaries : BT.709
Transfer characteristics : BT.709
Matrix coefficients : BT.709

Audio
ID : 2
Format : AC-3
Codec ID : A_AC3
Duration : 3 h 40 min
Bit rate mode : Watch
Bit rate : 384 kb/s
Channel(s) : 2 channels
Channel layout : L R
Sampling rate : 48.0 kHz
Frame rate : 31.250 FPS (1536 SPF)
Compression mode : Watch
Delay relative to video : -5 ms
Stream size : 605 MiB (6%)
Title : Stereo
Service kind :Watch
Default : Yes
Forced : No

 

 

 

Watch online

 

 

Server 1

 

 

 

 

watch now

 

 

 

 

Server 2

 

 

 

watch now

 

 

 

Watch WWE Elimination Chamber 2020 PPV 720p HDTV Star

 

 

Uploaded By Site DX-TV.com

 

 

DDL.to

https://shrt10.com/jS5Rj
https://shrt10.com/OK3KXa2
https://shrt10.com/ZopOUm
https://shrt10.com/0nApT
https://shrt10.com/NSVhP
https://shrt10.com/0BupzGO

 

rockfile.co

https://shrt10.com/iiXibVDay
https://shrt10.com/Jf6lKM
https://shrt10.com/j0EYRX6Tg
https://shrt10.com/OvZTxxXex
https://shrt10.com/qTveAwTv
https://shrt10.com/habNYs

 

 

Download with premium account Links 

 

 

Keep2Share

 

 

mixdrop.co

https://shrt10.com/usdVZw18V
https://shrt10.com/tJHs6bv81
https://shrt10.com/WJJt0WMB
https://shrt10.com/zCmrLWQ5
https://shrt10.com/QLiK3BFcO
https://shrt10.com/h0rWVZ

 

nitroflare.com

 

 

rapidgator.net

 

 

uploadgig.com

 

 

 

dx-tv.com

 

3 thoughts on “ Watch WWE Elimination Chamber 2020 PPV 720p HDTV Star

Leave a Reply

Your email address will not be published. Required fields are marked *

This site uses Akismet to reduce spam. Learn how your comment data is processed.

%d bloggers like this: