WWE Elimination Chamber 2020 PPV HDTV Star

Watch WWE Elimination Chamber 2020 PPV HDTV Star DX-TV

 

WWE

 WWE Elimination Chamber 2020

 

 

WWE Elimination Chamber 2020 PPV HDTV Star

 

Complete name : WWE.Elimination.Chamber.2020.PPV.HDTV.x264-Star.mp4
Format : MPEG-4
Format profile : Base Media
File size : 2.98 GiB
Duration : 3 h 40 min
Overall bit rate : 1 937 kb/s

Video
ID : 1
Format : AVC
Duration : 3 h 40 min
Bit rate : 1 600 kb/s
Width : 720 pixels
Height : 406 pixels
Display aspect ratio : 16:9
Frame rate mode : WWE
Frame rate : 59.940 (60000/1001) FPS
Minimum frame rate : 59.920 FPS
Maximum frame rate : 59.960 FPS
Color space : WWE
Chroma subsampling : 4:2:0
Bit depth : 8 bits
Scan type : Progressive
Bits/(Pixel*Frame) : 0.091
Stream size : 2.46 GiB (83%)
Color range : Limited
Color primaries : WWE
Transfer characteristics : BT.709
Matrix coefficients : BT.601
Codec configuration box : avcC

Audio
ID : 2
Format : AAC LC
Format/Info : WWE
Codec ID : mp4a-40-2
Duration : 3 h 40 min
Bit rate mode : WWE
Bit rate : 320 kb/s
Channel(s) : 2 channels
Channel layout : L R
Sampling rate : 48.0 kHz
Frame rate : 46.875 FPS (1024 SPF)
Compression mode : Lossy
Stream size : 504 MiB (17%)
Title : Stereo
Default : WWE
Alternate group : 1

 

 

 

Watch online

 

 

Server 1

 

 

 

 

watch now

 

 

 

 

Server 2

 

 

 

watch now

 

 

 

WWE Elimination Chamber 2020 PPV HDTV Star

 

 

Uploaded By Site DX-TV.com

 

 

DDL.to

https://shrt10.com/vPgHK0TWH
https://shrt10.com/KkAHEx

 

rockfile.co

https://shrt10.com/867FpqIoj
https://shrt10.com/xSw7dx

 

 

Download with premium account Links 

 

 

Keep2Share

 

 

mixdrop.co

 

 

alfafile.net

 

 

nitroflare.com

 

 

rapidgator.net

 

 

uploadgig.com

 

 

 

dx-tv.com

 

Leave a Reply

Your email address will not be published. Required fields are marked *

This site uses Akismet to reduce spam. Learn how your comment data is processed.

%d bloggers like this: