Watch Wrestling WWE Survivor Series 2020 /720p DX-TV

Watch Wrestling WWE Survivor Series 2020 Online /720p DX-TV

Watch Wrestling WWE Survivor Series

 

 Watch Wrestling WWE Survivor Series

 

[su_expand more_text=”Show More Info” less_text=”Close all Info” height=”30″ text_color=”#000000″ link_color=”#e25f8b” link_style=”button” more_icon=”icon: arrow-down” less_icon=”icon: arrow-up”]

Wrestling WWE Survivor Series

Complete name : WWE.Survivor.Series.2020.PPV.HDTV.x264-Star.mp4
Format : MPEG-4
Format profile : Base Media
Codec ID : mp42
File size : 2.09 GiB
Duration : 3 h 27 min
Overall bit rate : 1 443 kb/s

Video
ID : 1
Format : AVC
Duration : 3 h 27 min
Bit rate : 1 300 kb/s
Width : 720 pixels
Height : 480 pixels
Display aspect ratio : 16:9
Original display aspect rat : 16:9
rate mode : Constant
Frame rate : 29.970 FPS
Standard : NTSC
Color space : YUV
Chroma subsampling : 4:2:0
Bit depth : 8 bits
Scan type : Progressive
Bits/(Pixel*Frame) : 0.126
Stream size : 1.85 GiB (88%)
Color range : Limited
Color primaries : BT.601 NTSC
Transfer characteristics : BT.709
Matrix coefficients : BT.601
Codec configuration box : avc

Wrestling WWE Survivor Series

Audio
ID : 2
Format : AAC LC
Format/Info : Advanced Audio
Codec ID : mp4a-40-2
Duration : 3 h 27 min
Bit rate mode : Constant
Bit rate : 160 kb/s
Channel(s) : 2 channels
Channel layout : L R
Sampling rate : 48.0 kHz
Frame rate : 46.875 FPS (1024 SPF)
Compression mode : Lossy
Stream size : 238 MiB (11%)
Title : Stereo
Default : Yes
Alternate group : 1

Wrestling WWE Survivor Series

Complete name : WWE.Survivor.Series.2020.PPV.720p.HDTV.x264-Star.mkv
Format : Matroska
Format version : Version 4
File size : 7.46 GiB
Duration : 3 h 27 min
Overall bit rate : 5 152 kb/s

Video
ID : 1
Format : AVC
Duration : 3 h 27 min
Bit rate : 5 000 kb/s
Width : 1 280 pixels
Height : 720 pixels
Display aspect ratio : 16:9
Frame rate mode : Constant
Frame rate : 29.970 FPS
Color space : YUV
Chroma subsampling : 4:2:0
Bit depth : 8 bits
Scan type : Progressive
Bits/(Pixel*Frame) : 0.181
Stream size : 7.04 GiB (94%)
Color range : Limited
Color primaries : BT.709
Transfer characteristics : BT.709
Matrix coefficients : BT.709

Wrestling WWE Survivor Series

Audio
ID : 2
Format : AC-3
Format/Info : Audio Coding 3
Commercial name : Dolby Digital
Codec ID : A_AC3
Duration : 3 h 27 min
Bit rate mode : Constant
Bit rate : 192 kb/s
Channel(s) : 2 channels
Channel layout : L R
Sampling rate : 48.0 kHz
Frame rate : 31.250 FPS
Compression mode : Lossy
Delay relative to video : -5 ms
Stream size : 285 MiB (4%)
Title : Stereo
Service kind : Complete Main
Default : Yes
Forced : No

https://dx-tv.com/free-watch-wwe-survivor-series-2019-1080i-hdtv-dx-tv/

 

[/su_expand]

 

 

Watch online Wrestling WWE Survivor Series

 

 

Server 1

 

 

 

 

 

Server-2

 

 

 

 

 

 

 

 

 

 

Uploaded By Site DX-TV.com

 

 

 

Download Links with premium High Speed   

 

 

 

 

dropapk.to

http://shrt10.com/EGBoA

http://shrt10.com/kAHy1lzF3

 

nitroflare.com

http://shrt10.com/7mg4vqh

http://shrt10.com/9IlQCDrS

 

rapidgator.net

http://shrt10.com/G6z8f
http://shrt10.com/LGLa9F

 

 

uploaded.net

http://shrt10.com/7bbmnn5t

 

 

uploadgig.com

http://shrt10.com/MuhGbUVU
http://shrt10.com/OXn4Md6

 

 

Leave a Reply

Your email address will not be published. Required fields are marked *

This site uses Akismet to reduce spam. Learn how your comment data is processed.