Free WWE Survivor Series 2020 1080p Full Show DX-TV

Free WWE Survivor Series 2020 1080p Full Show Star DX-TV

WWE Survivor Series

 

 Free WWE Survivor Series

 

[su_expand more_text=”Show More Info” less_text=”Close all Info” height=”30″ text_color=”#000000″ link_color=”#e25f8b” link_style=”button” more_icon=”icon: arrow-down” less_icon=”icon: arrow-up”]

 WWE Survivor Series

Complete name : WWE.Survivor.Series.2020.PPV.1080p.HDTV.x264-Star.mkv
Format : Matroska
Format version : Version 4
File size : 14.8 GiB
Duration : 3 h 27 min
Overall bit rate : 10.2 Mb/s

WWE Survivor Series

Video
ID : 1
Format : AVC
Duration : 3 h 27 min
Bit rate : 10 000 kb/s
Width : 1 920 pixels
Height : 1 080 pixels
Display aspect ratio : 16:9
Frame rate mode : Constant
Frame rate : 29.970 FPS
Color space : YUV
Chroma subsampling : 4:2:0
Bit depth : 8 bits
Scan type : Progressive
Bits/(Pixel*Frame) : 0.161
Stream size : 14.1 GiB (95%)
Color range : Limited
Color primaries : BT.709
Transfer characteristics : BT.709
Matrix coefficients : BT.709

WWE Survivor Series

Audio
ID : 2
Format : AC-3
Format/Info : Audio Coding 3
Commercial name : Dolby Digital
Codec ID : A_AC3
Duration : 3 h 27 min
Bit rate mode : Constant
Bit rate : 256 kb/s
Channel(s) : 2 channels
Channel layout : L R
Sampling rate : 48.0 kHz
Frame rate : 31.250 FPS
Compression mode : Lossy
Delay relative to video : -5 ms
Stream size : 380 MiB
Title : Stereo
Service kind : Complete Main
Default : Yes
Forced : No

https://dx-tv.com/free-download-wwe-clash-of-champions-2019-ppv-720p/

 

That wasn’t enough to keep Reigns from slamming McIntyre through the announce table with two Samoan drops.

before further decimating him with a colossal Spear through the barricade.

McIntyre responded by showing off his resolve, absorbing another big-time Spear back in the ring before kicking out at two.

The WWE Champion countered another Spear attempt with a Claymore, but Reigns collided with the referee,

sending him out of the ring in a moment that proved decisive.

Reigns took advantage by hitting a low blow before McIntyre was struck by a superkick from The Big Dog’s cousin, Jey Uso.

Reigns finally locked Drew in the Guillotine that he attempted to apply several times earlier,

eventually putting the valiant McIntyre unconscious for the win.

with no small thanks to Uso, who put himself back in the good graces of The Head of The Table.

 

[/su_expand]

 

 

Free Watch online WWE Survivor Series

 

 

Server 1

 

 

 

 

Server-2

 

 

 

 

 

 

 

 

 

Uploaded By Site DX-TV.com

 

 

Download Links with premium High Speed   

 

 

 

1 link 14 GB

nitroflare.com

 

 

1 link 14 GB

rapidgator.net

 

 

 

 

You May Also Like

Leave a Reply

Your email address will not be published. Required fields are marked *

This site uses Akismet to reduce spam. Learn how your comment data is processed.