Watch Wrestling WWE NXT UK 26 11 2020 1080p DX-TV

Watch WWE NXT UK 26 11 2020 1080p DX-TV

 

WWE NXT UK

 WWE RAW

 

[su_expand more_text=”Show More Info” less_text=”Close all Info” height=”30″ text_color=”#000000″ link_color=”#e25f8b” link_style=”button” more_icon=”icon: arrow-down” less_icon=”icon: arrow-up”]

 

Complete name : WWE.NXT.UK.2020.11.26.1080p.WEB.h264-HEEL.mp4
Format : MPEG-4
Format profile : Base Media
Codec ID : isom
File size : 3.56 GiB
Duration : 1 h 4 min
Overall bit rate mode : Variable
Overall bit rate : 7 942 kb/s
Writing application : Lavf58.32.104

WWE NXT UK

Video
ID : 1
Format : AVC
Duration : 1 h 4 min
Bit rate : 7 808 kb/s
Width : 1 920 pixels
Height : 1 080 pixels
Display aspect ratio : 16:9
Frame rate mode : Constant
Frame rate : 30.000 FPS
Color space : YUV
Chroma subsampling : 4:2:0
Bit depth : 8 bits
Scan type : Progressive
Bits/(Pixel*Frame) : 0.126
Stream size : 3.47 GiB (97%)

WWE NXT UK

Audio
ID : 2
Format : AAC LC
Format/Info : Advanced Audio
Codec ID : mp4a-40-2
Duration : 1 h 4 min
Bit rate mode : Variable
Bit rate : 192 kb/s
Maximum bit rate : 423 kb/s
Channel(s) : 2 channels
Channel layout : L R
Sampling rate : 48.0 kHz
Frame rate : 46.875 FPS (1024 SPF)
Compression mode : Lossy
Stream size : 88.4 MiB (2%)
Default : Yes
Alternate group : 1

 

Watch Wrestling WWE NXT UK

[/su_expand]

 

 

Watch online

 

 

Server 1

 

 

 

 

 

 

 

 

Server-2

 

 

 

 

 

 

 

 

Uploaded By Site DX-TV.com

WWE NXT UK

 

 

Download Free Links with normal and high Speed [ more 14 hosts ]  

 

[su_expand more_text=”Show Hosts Info” less_text=”Close all Info” height=”30″ text_color=”#000000″ link_color=”#e25f8b” link_style=”button” more_icon=”icon: arrow-down” less_icon=”icon: arrow-up”]

 

 

hexupload.net – clicknupload.co – www.multiup.org

– uptobox.com – anonfiles.com – userscloud.com –

dropapk.to alfafile.net – ddownload.com – rockfile.co

– 1fichier.com – filedown.org – katfile.com – filerio.in

 

 

[/su_expand]

 

http://shrt10.com/MBOIpJWI
http://shrt10.com/Ke1qK
http://shrt10.com/P6EJ5zSH
http://shrt10.com/5FBOdFZV
http://shrt10.com/YADA9I
http://shrt10.com/5t5f7u4

 

 

 

Watch Wrestling WWE NXT UK

 

Download Links with premium High Speed   

 

 

 

 

dropapk.to

 

 

 

nitroflare.com

http://shrt10.com/I5EKrjl

 

 

rapidgator.net

 

 

 

uploaded.net

 

 

 

uploadgig.com

 

 

https://dx-tv.com/download-wwe-smackdown-15-may-2020-1080p/

Leave a Reply

Your email address will not be published. Required fields are marked *

This site uses Akismet to reduce spam. Learn how your comment data is processed.