Download WWE SmackDown 15 May 2020 1080p

WWE SmackDown 2020 05 15 1080p HDTV Star DX-TV

Download WWE

 WWE SmackDown


 

 

Download WWE SmackDown 15 May 2020 1080p

 

 

 

Complete name : WWE.SmackDown.2020.05.15.1080p.HDTV.x264-Star.mkv
Format : Matroska
Format version : Version 4
File size : 9.46 GiB
Duration : 1 h 27 min
Overall bit rate : 15.4 Mb/s
Writing library : Download WWE
ErrorDetectionType : Per level 1

Video
ID : 1
Format : AVC
Format/Info : Download WWE
Codec ID : V_MPEG4/ISO/AVC
Duration : 1 h 27 min
Bit rate : 15.0 Mb/s
Width : 1 920 pixels
Height : 1 080 pixels
Display aspect ratio : 16:9
Frame rate mode : Constant
Frame rate : 25.000 FPS
Color space : Download WWE
Chroma subsampling : 4:2:0
Bit depth : 8 bits
Scan type : Progressive
Bits/(Pixel*Frame) : 0.289
Stream size : 9.08 GiB (96%)
Color range : Limited
Color primaries : BT.709
Transfer : Download WWE
Matrix coefficients : BT.709

Audio
ID : 2
Format : AC-3
Format/Info : Audio Coding 3
Commercial name : Download WWE
Codec ID : A_AC3
Duration : 1 h 27 min
Bit rate mode : Constant
Bit rate : 320 kb/s
Channel(s) : 6 channels
Channel layout : L R C LFE Ls Rs
Sampling rate : 48.0 kHz
Frame rate : 31.250 FPS (1536 SPF)
Compression mode : Lossy
Delay relative to video : -5 ms
Stream size : 201 MiB (2%)
Title : Surround
Service kind : Complete Main
Default : Yes
Forced : Download WWE

 

 

 

Watch online

 

 

Server 1

 

 

 

 

watch now

 

 

 

 

Server 2

 

 

 

watch now

 

 

 

Download WWE SmackDown 15 May 2020 1080p

 

 

Uploaded By Site DX-TV.com

 

 

 

Download with premium account Links 

 

 

nitroflare.com

http://shrt10.com/GgOP2V
http://shrt10.com/00q2JW8

 

rapidgator.net

http://shrt10.com/ZFwS9
http://shrt10.com/Ch7j6

 

uploadgig.com

https://urlfree.net/8CgkMxG
https://urlfree.net/CjwRLFu

 

 

dx-tv.com

 

urlfree.net

Leave a Reply

Your email address will not be published. Required fields are marked *

This site uses Akismet to reduce spam. Learn how your comment data is processed.

%d bloggers like this: