Watch Wrestling WWE SmackDown 27 11 2020 720p DX-TV

Watch Wrestling WWE SmackDown 27 11 2020 720p DX-TV

WWE SmackDown 27 11 2020

 

 WWE SmackDown 27 11 2020

 

[su_expand more_text=”Show More Info” less_text=”Close all Info” height=”30″ text_color=”#000000″ link_color=”#e25f8b” link_style=”button” more_icon=”icon: arrow-down” less_icon=”icon: arrow-up”]

 

Complete name : WWE SmackDown.2020.11.27.720p.HDTV.x264-NWCHD.mp4
Format : MPEG-4
Format profile : Base Media
Codec ID : isom
File size : 2.77 GiB
Duration : 1 h 24 min
Overall bit rate : 4 698 kb/s
Writing application : Lavf58.51.101

WWE SmackDown 27 11 2020

Video
ID : 1
Format : AVC
Duration : 1 h 24 min
Bit rate : 4 500 kb/s
Width : 1 280 pixels
Height : 720 pixels
Display aspect ratio : 16:9
Frame rate mode : Variable
Frame rate : 29.970 FPS
Color space : YUV
Chroma subsampling : 4:2:0
Bit depth : 8 bits
Scan type : Progressive
Bits/(Pixel*Frame) : 0.163
Stream size : 2.65 GiB (96%)
Color primaries : BT.709
Transfer characteristics : BT.709
Matrix coefficients : BT.709
Codec configuration box : avc

WWE SmackDown 27 11 2020

Audio
ID : 2
Format : AAC LC
Format/Info : Advanced Audio
Codec ID : mp4a-40-2
Duration : 1 h 24 min
Bit rate mode : Constant
Bit rate : 192 kb/s
Channel(s) : 2 channels
Channel layout : L R
Sampling rate : 48.0 kHz
Frame rate : 46.875 FPS (1024 SPF)
Compression mode : Lossy
Stream size : 116 MiB (4%)
Title : Stereo
Language : English
Default : Yes
Alternate group : 1

 

Watch Wrestling WWE SmackDown

[/su_expand]

 

 

Watch online

 

 

Server 1

 

 

 

 

WWE SmackDown 27 11 2020

 

 

 

 

Server-2

 

 

 

 

watch now

 

 

 

 

Uploaded By Site DX-TV.com

 

 

WWE SmackDown 27 11 2020

 

Download Free Links with normal and high Speed [ more 14 hosts ]  

 

[su_expand more_text=”Show Hosts Info” less_text=”Close all Info” height=”30″ text_color=”#000000″ link_color=”#e25f8b” link_style=”button” more_icon=”icon: arrow-down” less_icon=”icon: arrow-up”]

 

 

hexupload.net – clicknupload.co – www.multiup.org

– uptobox.com – anonfiles.com – userscloud.com – 

 

[/su_expand]

 

400p

 

http://shrt10.com/3ICCDvd
http://shrt10.com/ngcyRtbv
http://shrt10.com/Lo15g
http://shrt10.com/cKMvBeS
http://shrt10.com/Il2ck
http://shrt10.com/A49re1tO
http://shrt10.com/3qHzw1
http://shrt10.com/ZIZZ2u

 

 

 

720p

 

http://shrt10.com/OiNzY7w
http://shrt10.com/jSv612
http://shrt10.com/zBAQXvo
http://shrt10.com/xyQBCClX
http://shrt10.com/age3A3q
http://shrt10.com/4YreY

 

 

 

Download Links with premium High Speed   

 

 

 

 

dropapk.to

http://shrt10.com/8jYQC1
http://shrt10.com/koHDj

 

 

nitroflare.com

http://shrt10.com/9l5BE5Wv2
http://shrt10.com/ysRYElE4

 

 

rapidgator.net

http://shrt10.com/XlqTs4
http://shrt10.com/XDZY9IVsg

 

 

uploaded.net

http://shrt10.com/vhDT8O

 

 

 

uploadgig.com

http://shrt10.com/Maq4TDqm
http://shrt10.com/0hWOJ

 

https://dx-tv.com/free-wwe-smackdown-2019-11-29-mp4/

You May Also Like

Leave a Reply

Your email address will not be published. Required fields are marked *

This site uses Akismet to reduce spam. Learn how your comment data is processed.