Watch Wrestling Online ROH Wrestling 20 Nov 2020 DX-TV

Watch ROH Wrestling 20 Nov 2020 1080p DX-TV

 

Watch Wrestling Online

Watch Wrestling Online

 

[su_expand more_text=”Show More Info” less_text=”Close all Info” height=”30″ text_color=”#000000″ link_color=”#e25f8b” link_style=”button” more_icon=”icon: arrow-down” less_icon=”icon: arrow-up”]

 Wrestling Online

Complete name : ROH.Wrestling.Ep.479.20th.Nov.2020.1080p.mp4
Format : MPEG-4
Format profile : Base Media
Codec ID : isom
File size : 1.31 GiB
Duration : 50 min 50 s
Overall bit rate mode : Variable
Overall bit rate : 3 692 kb/s
Writing application : Lavf58.51

 Wrestling Online

Video
ID : 1
Format : AVC
Duration : 50 min 50 s
Bit rate : 3 492 kb/s
Width : 1 920 pixels
Height : 1 080 pixels
Display aspect ratio : 16:9
Frame rate mode : Constant
Frame rate : 29.970 FPS
Color space : YUV
Chroma subsampling : 4:2:0
Bit depth : 8 bits
Scan type : Progressive
Bits/(Pixel*Frame) : 0.056
Stream size : 1.24 GiB (95%)
Codec configuration box : avc

Watch Wrestling Online

Audio
ID : 2
Format : AAC LC
Format/Info : Advanced Audio
Codec ID : mp4a-40-2
Duration : 50 min 50 s
Bit rate mode : Variable
Bit rate : 192 kb/s
Maximum bit rate : 200 kb/s
Channel(s) : 2 channels
Channel layout : L R
Sampling rate : 48.0 kHz
Frame rate : 46.875 FPS
Compression mode : Lossy
Stream size : 69.7 MiB (5%)
Default : Yes
Alternate group : 1

 

Watch Wrestling Online

[/su_expand]

 

 

Watch online

 

 

Server 1

 

 

 

 

 

 

 

 

Server-2

 Wrestling Online

 

 

 

 

 

https://dx-tv.com/watch-njpw-best-of-the-super-jr-27-2020-day-1-free-online/

 

Uploaded By Site DX-TV.com

 

Download Free Links with normal and high Speed [ more 14 hosts ]  

 

[su_expand more_text=”Show Hosts Info” less_text=”Close all Info” height=”30″ text_color=”#000000″ link_color=”#e25f8b” link_style=”button” more_icon=”icon: arrow-down” less_icon=”icon: arrow-up”]

 

 Wrestling Online

hexupload.net – clicknupload.co – www.multiup.org

– uptobox.com – anonfiles.com – userscloud.com – 

 

 

[/su_expand]

 

 

http://shrt10.com/wpCpJ9
http://shrt10.com/IGQEojR
http://shrt10.com/R1FYSv
http://shrt10.com/1Lq6g
http://shrt10.com/VCjVua
http://shrt10.com/pYUWmV
http://shrt10.com/6kG4G
http://shrt10.com/bdb6yxD

 

 

 

 Wrestling Online

Download Links with premium High Speed   

 

 

 

 

dropapk.to

 

 

 

nitroflare.com

 

 

 

rapidgator.net

 

 

 

uploaded.net

 

 

 

uploadgig.com

 

 

Watch Wrestling Online

You May Also Like

Leave a Reply

Your email address will not be published. Required fields are marked *

This site uses Akismet to reduce spam. Learn how your comment data is processed.