Download WWE Raw 1080p 23 11 2020 Full Show

Download WWE Raw 23 11 2020 1080p HDTV Star DX-TV

WWE Raw 23 11 2020

 

 WWE Raw 23 11 2020

 

[su_expand more_text=”Show More Info” less_text=”Close all Info” height=”30″ text_color=”#000000″ link_color=”#e25f8b” link_style=”button” more_icon=”icon: arrow-down” less_icon=”icon: arrow-up”]

 
WWE Raw 23 11 2020

Complete name : WWE.Monday.Night.Raw.2020.11.23.1080p.HDTV.x264-Star.mkv
Format : Matroska
Format version : Version 4
File size : 9.43 GiB
Duration : 2 h 11 min
Overall bit rate : 10.3 Mb/s

WWE Raw 23 11 2020

Video
ID : 1
Format : AVC
Duration : 2 h 11 min
Bit rate : 10 000 kb/s
Width : 1 920 pixels
Height : 1 080 pixels
Display aspect ratio : 16:9
Frame rate mode : Constant
Frame rate : 29.970 FPS
Color space : YUV
Chroma : 4:2:0
Bit depth : 8 bits
Scan type : Progressive
Bits/(Pixel*Frame) : 0.161
Stream size : 9.00 GiB
Forced : No
Color range : Limited
Color primaries : BT.709
Transfer characteristics : BT.709
Matrix coefficients : BT.709

Download  WWE Raw 23 11 2020

Audio
ID : 2
Format : AC-3
Format/Info : Audio Coding 3
Commercial name : Dolby Digital
Codec ID : A_AC3
Duration : 2 h 11 min
Bit rate mode : Constant
Bit rate : 256 kb/s
Channel(s) : 2 channels
Channel layout : L R
Sampling rate : 48.0 kHz
Frame rate : 31.250 FPS
Compression mode : Lossy
Delay relative to video : -5 ms
Stream size : 241 MiB
Title : Stereo
Service kind : Complete
Default : Yes
Forced : No

Download WWE Raw 23 11 2020 1080p 

 

Raw’s main event was a “WrestleMania caliber” match between the 14-time World Champion Randy Orton and “The Phenomenal One” AJ Styles.

The Viper came out livid on the heels of losing his WWE Title last week and displayed cruel intentions for Styles.

Orton nearly put Styles away with a quick strike power slam, but Styles got a shoulder up in the nick of time.

As Orton rolled outside the ring, The Fiend emerged behind the barricade and then again on the apron to startle The Legend Killer.

Styles took advantage of the opening with a Phenomenal Forearm to finalize the field for next week’s Triple Threat Match.

 

 

[/su_expand]

 

 

Watch online

 

 

Server 1

 

 

 

 

 

 

 

 

Server-2

 

 

 

 

 

https://dx-tv.com/wwe-survivor-series-2020-ppv-free-full-show-online-720p/

 

 

Uploaded By Site DX-TV.com

 

 

Download Links with premium High Speed   

 

 

 

 

dropapk.to

http://shrt10.com/PGGthJokL

 

 

nitroflare.com

http://shrt10.com/XVoLt

 

 

rapidgator.net

 

http://shrt10.com/7nIfO

 

 

Leave a Reply

Your email address will not be published. Required fields are marked *

This site uses Akismet to reduce spam. Learn how your comment data is processed.