Watch Free NJPW Best Of The Super Jr 27 2020 Day 5 DX-TV

Watch Free NJPW Best Of The Super Jr 27 2020 Day 5 DX-TV

NJPW Best Of The Super Jr 27 2020 Day 5

 

 NJPW Best Of The Super Jr 27 2020 Day 5

 

[su_expand more_text=”Show More Info” less_text=”Close all Info” height=”30″ text_color=”#000000″ link_color=”#e25f8b” link_style=”button” more_icon=”icon: arrow-down” less_icon=”icon: arrow-up”]

 Best Of The Super Jr 27 2020 Day 5

Complete name : NJPW Best Of The Super Jr 27 2020 11 24 Day 5 DX-TV.mp4
Format : MPEG-4
Format profile : Base Media
Codec ID : isom
File size : 2.37 GiB
Duration : 2 h 56 min
Overall bit rate : 1 930 kb/s
Writing application : Lavf58.25

NJPW Best Of The Super Jr 27 

Video
ID : 1
Format : AVC
Duration : 2 h 56 min
Bit rate : 1 821 kb/s
Width : 960 pixels
Height : 540 pixels
Display aspect ratio : 16:9
Frame rate mode : Variable
Frame rate : 29.970 FPS
Color space : YUV
Chroma subsampling : 4:2:0
Bit depth : 8 bits
Scan type : Progressive
Bits/(Pixel*Frame) : 0.117
Stream size : 2.24 GiB
Color range : Limited
Color primaries : BT.601 PAL
Transfer characteristics : BT.601
Matrix coefficients : BT.470
Codec configuration box : avc

NJPW Best Of The Super Jr 27 

Audio
ID : 2
Format : AAC LC
Format/Info : Advanced Audio
Codec ID : mp4a-40-2
Duration : 2 h 56 min
Bit rate mode : Constant
Bit rate : 98.7 kb/s
Channel(s) : 2 channels
Channel layout : L R
Sampling rate : 44.1 kHz
Frame rate : 43.066 FPS
Compression mode : Lossy
Stream size : 124 MiB
Default : Yes
Alternate group : 1

NJPW Best Of The Super Jr 27 

With a handful of hair, Yano brought Ishii back inside, but powerful offense was stopped by the exposed turnbuckle and a Tongan Twist.

With Yano back inside, G.o.D looked for Magic Killer, but Ishii prevented the move. The Stone Pitbull fell victim to Guerrilla Warfare,

but after a double low blow and a roll-up, Yano pulled off the three count, leaving a furious Tongan pair to destroy his KOPW 2020 trophy. 

NJPW Best Of The Super Jr 27 2020 Day 5

Jeff Cobb and Great-O-Khan headed with confidence into their semi main bout with Dangerous Tekkers.

and Cobb showed his immense power early in the face of Zack Sabre Junior’s maneuverability.

suplexing out of a front chancerie, and bringing Great-O-Khan inside with gut wrench suplexes and brutal strikes.

[/su_expand]

 

 

Watch online

 

 

Server 1

 

 

 

 

 

 

 

 

Server-2

 

 

 

 

 

 

 

 

Uploaded By Site DX-TV.com

 

watch free NJPW Best Of The Super Jr 27 

 

Download Links with premium High Speed   

 

 

 

 

dropapk.to

 

 

 

nitroflare.com

 

 

 

rapidgator.net

 

 

 

uploaded.net

 

 

 

 

https://dx-tv.com/njpw-best-of-the-super-jr-27-day-2-nov-16-free-livestream/

Leave a Reply

Your email address will not be published. Required fields are marked *

This site uses Akismet to reduce spam. Learn how your comment data is processed.