Free WWE Raw 23 11 2020 Full Show Online / 720p DX-TV

Watch Free WWE Raw 23 11 2020 HDTV NWCHD /720p DX-TV

Free WWE Raw 23 11 2020

 

 Free WWE Raw 23 11 2020

 

[su_expand more_text=”Show More Info” less_text=”Close all Info” height=”30″ text_color=”#000000″ link_color=”#e25f8b” link_style=”button” more_icon=”icon: arrow-down” less_icon=”icon: arrow-up”]

Free WWE Raw 23 11 2020

Complete name : WWE.Monday.Night.Raw.2020.11.23.720p.HDTV.x264-NWCHD.mp4
Format : MPEG-4
Format profile : Base Media
Codec ID : isom
File size : 4.18 GiB
Duration : 2 h 7 min
Overall bit rate : 4 706 kb/s
Writing application : Lavf58.51

WWE Raw 23 11 2020

Video
ID : 1
Format : AVC
Duration : 2 h 7 min
Bit rate : 4 500 kb/s
Width : 1 280 pixels
Height : 720 pixels
Display aspect ratio : 16:9
Frame rate mode : Variable
Frame rate : 29.970 FPS
Color space : YUV
Chroma  : 4:2:0
Bit depth : 8 bits
Scan type : Progressive
Bits/(Pixel*Frame) : 0.163
Stream size : 4.00 GiB (96%)
Color primaries : BT.709
Transfer characteristics : BT.709
Matrix coefficients : BT.709
Codec configuration box : avc

WWE Raw 23 11 2020

Audio
ID : 2
Format : AAC LC
Format/Info : Advanced Audio
Codec ID : mp4a-40-2
Duration : 2 h 7 min
Bit rate mode : Constant
Bit rate : 192 kb/s
Channel(s) : 2 channels
Channel layout : L R
Sampling rate : 48.0 kHz
Frame rate : 46.875 FPS
Compression mode : Lossy
Stream size : 174 MiB
Title : Stereo
Language : English
Default : Yes
Alternate group : 1

WWE Raw 23 11 2020

Complete name : WWE.Monday.Night.Raw.2020.11.23.HDTV.x264-NWCHD.mp4
Format : MPEG-4
Format profile : Base Media
Codec ID : isom
File size : 1.42 GiB
Duration : 2 h 7 min
Overall bit rate : 1 602 kb/s
Writing application : Lavf58.27.103

Video
ID : 1
Format : AVC
Duration : 2 h 7 min
Bit rate : 1 400 kb/s
Width : 704 pixels
Height : 400 pixels
Display aspect ratio : 16:9
Frame rate mode : Variable
Frame rate : 29.970 FPS
Color space : YUV
Chroma  : 4:2:0
Bit depth : 8 bits
Scan type : Progressive
Bits/(Pixel*Frame) : 0.166
Stream size : 1.24 GiB
Color primaries : BT.709
Transfer characteristics : BT.709
Matrix coefficients : BT.709
Codec configuration box : avc

WWE Raw 23 11 2020

Audio
ID : 2
Format : AAC LC
Format/Info : Advanced Audio
Codec ID : mp4a-40-2
Duration : 2 h 7 min
Bit rate mode : Constant
Bit rate : 192 kb/s
Channel(s) : 2 channels
Channel layout : L R
Sampling rate : 48.0 kHz
Frame rate : 46.875 FPS
Compression mode : Lossy
Stream size : 174 MiB
Title : Stereo
Language : English
Default : Yes
Alternate group : 1

Free WWE Raw 23 11 2020

 

Riddle def. Sheamus – Advanced to Triple Threat Match for WWE Title opportunit

Earlier in the night, Adam Pearce announced a WWE Title opportunity .

would be given to a member of Team Raw as reward for their Survivor Series win.

Braun Strowman offered a monstrous response with a headbutt to Pearce.

After some recovery and a conversation with Randy Orton.

Pearce proclaimed qualifying matches would take place to set up a Triple Threat Match for a WWE Title opportunity next week on Raw.

Riddle and Sheamus were the first two competitors to battle it out for the coveted spot.

The Survivor Series teamwork went out the window, as the rivalry between the two heated back up on Raw. Riddle soared in for a huge Broton.

but The Celtic Warrior kicked out and came battling back with 10 Beats of the Bodhrán.

Riddle shocked Sheamus when he kicked out after a White Noise from the second rope.

When The Celtic Warrior locked in a Cloverleaf, Riddle had one last gasp to counter for the roll-up win.

 

[/su_expand]

 

 

Watch online

 

 

Server 1

 

 

 

 

 

 

 

 

Server-2

 

 

 

 

 

 

 

 

Uploaded By Site DX-TV.com

WWE Raw 23 11 2020

 

Download Free Links with normal and high Speed [ more 14 hosts ]  

 

[su_expand more_text=”Show Hosts Info” less_text=”Close all Info” height=”30″ text_color=”#000000″ link_color=”#e25f8b” link_style=”button” more_icon=”icon: arrow-down” less_icon=”icon: arrow-up”]

 

 

hexupload.net – clicknupload.co – www.multiup.org

– uptobox.com – anonfiles.com – userscloud.com –

dropapk.to alfafile.net – ddownload.com – rockfile.co

– 1fichier.com – filedown.org – katfile.com – filerio.in

 

 

[/su_expand]

 

480p

 

http://shrt10.com/CDsSMFvV
http://shrt10.com/sDpAF5a0L
http://shrt10.com/rqgHC
http://shrt10.com/Q8SMKpbR
http://shrt10.com/crsJwCR
http://shrt10.com/ydXTk
http://shrt10.com/roTXqCI
http://shrt10.com/FBIqC

 

 

WWE Raw 23 11 2020

Download Links with premium High Speed   

 

 

 

 

dropapk.to

http://shrt10.com/DduHI
http://shrt10.com/cB14p

 

 

nitroflare.com

http://shrt10.com/wpPkm
http://shrt10.com/oX4xiVe

 

 

rapidgator.net

http://shrt10.com/UNBJEBti
http://shrt10.com/X9ZSh8

 

 

uploaded.net

http://shrt10.com/psr4MK
http://shrt10.com/ef3Arg

 

 

uploadgig.com

http://shrt10.com/MUDkfnvT
http://shrt10.com/CU39p

 

https://dx-tv.com/wwe-royal-rumble-2020-hdtv-1080p/

Leave a Reply

Your email address will not be published. Required fields are marked *

This site uses Akismet to reduce spam. Learn how your comment data is processed.