Watch NJPW Best Of The Super Jr 27 2020 Day 1 Free Online

Watch NJPW World Tag League 15 11 2020 Best Of The Super Jr 27 Japan Day 1 DX-TV

NJPW Best Of The Super Jr 27 2020 Day 1

 

NJPW Best Of The Super Jr 27 2020 Day 1

 

Watch NJPW Best Of The Super Jr 27 2020 Day 1 Free Online

 

Complete name : NJPW.World.Tag.League.2020.11.15.Best.Of.The.Super.Jr.27.Day.1 WEB DX-TV.com.mp4
Format : MPEG-4
Format profile : Base Media
Codec ID : isom
File size : 3.27 GiB
Duration : 3 h 11 min
Overall bit rate : 2 448 kb/s
Writing application : Lavf58.25.100

NJPW Best Of The Super Jr 27 2020 Day 1

Video
ID : 1
Format : AVC
Duration : 3 h 11 min
Bit rate : 2 338 kb/s
Width : 1 280 pixels
Height : 720 pixels
Display aspect ratio : 16:9
Frame rate mode : Variable
Frame rate : 30.000 FPS
Minimum frame rate : 14.706 FPS
Maximum frame rate : 90 000.000 FPS
Color space : YUV
Chroma subsampling : 4:2:0
Bit depth : 8 bits
Scan type : Progressive
Bits/(Pixel*Frame) : 0.085
Stream size : 3.12 GiB (96%)
Color range : Limited
Color primaries : BT.709
Transfer characteristics : BT.709
Matrix coefficients : BT.709
Codec configuration box : avc

NJPW Best Of The Super Jr 27 2020 Day 1

Audio
ID : 2
Format : AAC LC
Format/Info : Advanced Audio
Codec ID : mp4a-40-2
Duration : 3 h 11 min
Bit rate mode : Constant
Bit rate : 99.5 kb/s
Channel(s) : 2 channels
Channel layout : L R
Sampling rate : 44.1 kHz
Frame rate : 43.066 FPS (1024 SPF)
Compression mode : Lossy
Stream size : 136 MiB (4%)
Default : Yes
Alternate group : 1

NJPW Best Of The Super Jr 27 2020 Day 1

8th Match: Best of the Super Jr. 27: Ryusuke Taguchi vs El Desperado

Singles record: 2-2 BoSJ record 2-1 Desperado

Ryusuke Taguchi and El Desperado will face off in their first campaign matchups, their first meeting since 2018’s tournament.

While they sit even at 2-2 overall, Taguchi’s last victory over the hooligan luchador came a full six years ago.

and the highly motivated Desperado will be a tough man to beat in Aichi after the impressive 2020 he’s had. 

That said, Taguchi’s tournament ability must not be underestimated.

Consistently in the mix when the tournament gets down to the wire, Taguchi is very dangerous in big match scenarios such as these.

and after a significant period away from the ring to prepare, will be a definite contender.

NJPW BEST OF THE SUPER Jr 27

 

Watch NJPW Best Of The Super Jr 27 2020 Day 1 Free Online

 

Watch online

 

 

Server 1

 

 

 

 

 

 

 Best Of The Super Jr 27 2020 Day 1

 

Server-2

 

 

 

 

 

 

 

 

Uploaded By Site DX-TV.com

 

Download Links with premium High Speed   

 

 

 

 

dropapk.to

 

 

 

nitroflare.com

 

 

 

rapidgator.net

 

 

 

uploaded.net

 

 

 

uploadgig.com

 

 

 

 

 

dx-tv.com

 

urlfree.net

Leave a Reply

Your email address will not be published. Required fields are marked *

This site uses Akismet to reduce spam. Learn how your comment data is processed.