Watch Wrestling ICW PitfiGhter X4 2020 Full Show Online

Wrestling ICW PitfiGhter X4 2020 Full Show Online DX-TV

ICW PitfiGhter X4

 

 ICW PitfiGhter X4

 

Watch Wrestling ICW PitfiGhter X4 2020 Full Show Online

 

 

Complete name : ICW PITFIGHTER X4.mp4
Format : MPEG-4
Format profile : Base Media
Codec ID : isom
File size : 1.49 GiB
Duration : 2 h 7 min
Overall bit rate mode : Variable
Overall bit rate : 1 678 kb/s
Writing application : Lavf58.45.100

ICW PitfiGhter X4

Video
ID : 1
Format : AVC
Duration : 2 h 7 min
Bit rate : 1 536 kb/s
Width : 1 280 pixels
Height : 720 pixels
Display aspect ratio : 16:9
Frame rate mode : Variable
Frame rate : 29.970 FPS
Color space : YUV
Chroma subsampling : 4:2:0
Bit depth : 8 bits
Scan type : Progressive
Bits/(Pixel*Frame) : 0.056
Stream size : 1.37 GiB (92%)

ICW PitfiGhter X4

Audio
ID : 2
Format : AAC LC
Format/Info : Advanced Audio
Codec ID : mp4a-40-2
Duration : 2 h 7 min
Bit rate mode : Variable
Bit rate : 129 kb/s
Maximum bit rate : 155 kb/s
Channel(s) : 2 channels
Channel layout : L R
Sampling rate : 48.0 kHz
Frame rate : 46.875 FPS
Compression mode : Lossy
Stream size : 117 MiB
Default : Yes
Alternate group : 1

ICW PitfiGhter X4

 

* Eric Ryan def. Jimmy Lloyd

* Dominic Garrini def. Eddy Only

* Justin Kyle def. Bruce Santee

* AKIRA def. Nolan Edward

* Reed Bentley def. Atticus Cogar

* John Wayne Murdoch def. Alex Ocean

* SHLAK def. Neil Diamond Cutter

Watch Wrestling ICW PitfiGhter X4 2020 Full Show Online

 

Watch online

 

 

Server 1

 

 

 

 

 

 

 

ICW PitfiGhter X4

Server-2

 

 

 

 

 

 

 

 

Uploaded By Site DX-TV.com

 

 

 

 

Download Free Links with normal and high Speed [ more 14 hosts ]  

 

 

 

http://shrt10.com/7AZ51VRez
http://shrt10.com/kIFXz
http://shrt10.com/9WgVeK
http://shrt10.com/0AOvN
http://shrt10.com/UtIfrT
http://shrt10.com/0MDkmL2
http://shrt10.com/vVTtDbe
http://shrt10.com/tom3g

 

ICW PitfiGhter X4

 

Download Links with premium High Speed   

 

 

 

 

dropapk.to

 

 

 

nitroflare.com

 

 

 

rapidgator.net

 

 

 

uploaded.net

 

 

 

uploadgig.com

 

 

 PitfiGhter X4

 

 

dx-tv.com

 

urlfree.net

Leave a Reply

Your email address will not be published. Required fields are marked *

This site uses Akismet to reduce spam. Learn how your comment data is processed.