Watch Free Wrestling BKFC 14 720p Full Show

Watch Free Wrestling BKFC 14 720p Full Show DX-TV

BKFC 14

 

 BKFC 14

 

Watch Free Wrestling BKFC 14 720p Full Show

 

 

Complete name : BKFC.14.WEB.720p.totanon.mp4
Format : MPEG-4
Format profile : Base Media
Codec ID : mp42
File size : 4.75 GiB
Duration : 4 h 21 min
Overall bit rate mode : Variable
Overall bit rate : 2 603 kb/s

BKFC 14

Video
ID : 1
Format : AVC
Duration : 4 h 21 min
Bit rate mode : Constant
Bit rate : 2 500 kb/s
Maximum bit rate : 3 000 kb/s
Width : 1 280 pixels
Height : 720 pixels
Display aspect ratio : 16:9
Frame rate mode : Constant
Frame rate : 29.970 FPS
Color space : YUV
Chroma subsampling : 4:2:0
Bit depth : 8 bits
Scan type : Progressive
Bits/(Pixel*Frame) : 0.091
Stream size : 4.51 GiB
Codec configuration box : av

BKFC 14

Audio
ID : 2
Format : AAC LC
Format/Info : Advanced Audio
Codec ID : mp4a-40-2
Duration : 4 h 21 min
Bit rate mode : Variable
Bit rate : 128 kb/s
Channel(s) : 2 channels
Channel layout : L R
Sampling rate : 48.0 kHz
Frame rate : 46.875 FPS
Compression mode : Lossy
Stream size : 239 MiB (5%)
Default : Yes
Alternate group : 1

BKFC 14

“I busted my ass in the gym, man, because Jim Alers was the face of this organization and this division,” Palomino said after the fight.

“And I took him out the way that I did because I am that much better. I’m the undisputed champion of the world, and I’ll continue to be that.”

There was also a pro wrestling-style interruption by Tyler Goodjohn, a potential future challenger. I’ll get into that sort of thing more in the results below.

“I think we went from one grudge match to the next grudge match tonight,” promoter David Feldman said after the fight.

England’s Goodjohn, who is a recorded 2-0 (1 KO) in bare knuckle and 13-5 (4 KO) in pro boxing.

will make his BKFC debut next month as part of the BKFC 15 card, which also features British heavyweight Mark Godber.

and is built around a “The British Are Coming” theme. You may have seen Goodjohn over the years in boxing.

he’s had losses to guys like Tyrone Nurse and Johnny Garton.

BKFC 14

He last fought in pro boxing in 2017.

Before we get into the fight recaps, I also wanted to note that Frank Mir, the 41-year-old UFC veteran and former heavyweight champion, was at the show.

did commentary for one fight, and said he’s “basically 100 percent in” for coming to BKFC and trying his hand in this sport.

Mir has a career 19-13 record in MMA, which is better than it might seem to boxing fans who don’t follow MMA much.

and while he certainly is well past his prime in MMA (he’s lost four of his last five),

his experience and toughness could make him a real threat in bare knuckle.

 

Watch Free Wrestling BKFC 14 720p Full Show

 

Watch online

 

 

Server 1

 

 

 

 

BKFC 14

 

Server-2

 

 

 

 

 

 

 

Uploaded By Site DX-TV.com

 

 

 

 

Download Free Links with normal and high Speed [ more 14 hosts ]  

 

[su_expand more_text=”Show Hosts Info” less_text=”Close all Info” height=”30″ text_color=”#000000″ link_color=”#e25f8b” link_style=”button” more_icon=”icon: arrow-down” less_icon=”icon: arrow-up”]

BKFC 14

 

hexupload.net – clicknupload.co – www.multiup.org

– uptobox.com – anonfiles.com – userscloud.com –

dropapk.to alfafile.net – ddownload.com – rockfile.co

– 1fichier.com – filedown.org – katfile.com – filerio.in

 

 

[/su_expand]

 

 

Prelims

http://shrt10.com/2T1prW
http://shrt10.com/FoULCYI
http://shrt10.com/Wv0sMdN7S
http://shrt10.com/EwP8MZ
http://shrt10.com/WyvmkhqR

 

BKFC 14

 

PPV

http://shrt10.com/9xgKkDQ
http://shrt10.com/ccgXDF
http://shrt10.com/ZIhH5aD
http://shrt10.com/fZVFf
http://shrt10.com/gd7NA
http://shrt10.com/6EV9qPht
http://shrt10.com/r1SNM
http://shrt10.com/4BLWUeTb

 

 

 

Download Links with premium High Speed   

 

 

 

 

dropapk.to

http://shrt10.com/jpXPipQuH
http://shrt10.com/hhd7Szy1W

 

 

nitroflare.com

http://shrt10.com/DbfH73Sf
http://shrt10.com/cKjMTiC

 

 

rapidgator.net

http://shrt10.com/F2MqsXU3
http://shrt10.com/JO73QtnP

 

 

uploaded.net

http://shrt10.com/jYvVkN5
http://shrt10.com/6sNZMIPo

 

 

uploadgig.com

http://shrt10.com/oQxR0Cxdi
http://shrt10.com/TupzAE

 

 

 

 

dx-tv.com

 

urlfree.net

2 thoughts on “Watch Free Wrestling BKFC 14 720p Full Show

  1. Going to leave this everyday. Fix your servers

    Nothing plays.
    It’s constantly servers every troubleshoot

    FIX THE SHIT. Your fault for making a 4 hour fucking video as an embedded link, break it up so I don’t have to wait four hours to loud four hours. Cunt.

Leave a Reply

Your email address will not be published. Required fields are marked *

This site uses Akismet to reduce spam. Learn how your comment data is processed.