Watch Wrestling Online AEW DARK 08 Dec 2020 DX-TV

Watch Wrestling Online AEW DARK 08 Dec 2020 1080p DX-TV

Watch Wrestling Online AEW

 

 Watch Wrestling Online AEW

 

[su_expand more_text=”Show More Info” less_text=”Close all Info” height=”50″ text_color=”#000000″ link_color=”#e25f8b” link_style=”button” more_icon=”icon: arrow-down” less_icon=”icon: arrow-up”]
Complete name : AEW.DARK.8th.Dec.2020.1080p.WEBRip.h264-TJ.mp4
Format : MPEG-4
Format profile : Base Media
Codec ID : isom
File size : 4.10 GiB
Duration : 2 h 10 min
Overall bit rate : 4 481 kb/s
Writing application : Lavf57.83.100

Video
ID : 1
Format : AVC
Duration : 2 h 10 min
Bit rate : 4 343 kb/s
Width : 1 920 pixels
Height : 1 080 pixels
Display aspect ratio : 16:9
Frame rate mode : Constant
Frame rate : 29.970 FPS
Color space : YUV
Chroma subsampling : 4:2:0
Bit depth : 8 bits
Scan type : Progressive
Bits/(Pixel*Frame) : 0.070
Stream size : 3.97 GiB (97%)
Color range : Limited
Color primaries : BT.709
Transfer characteristics : BT.709
Matrix coefficients : BT.70
Codec configuration box : avc

Watch Wrestling Online AEW

Audio
ID : 2
Format : AAC LC
Format/Info : Advanced Audio
Codec ID : mp4a-40-2
Duration : 2 h 10 min
Duration_LastFrame : 1 ms
Bit rate mode : Constant
Bit rate : 128 kb/s
Channel(s) : 2 channels
Channel layout : L R
Sampling rate : 44.1 kHz
Frame rate : 43.066 FPS
Compression mode : Lossy
Stream size : 120 MiB (3%)
Language : English
Default : Yes
Alternate group : 1

Watch Wrestling Online AEW

Complete name : AEW.DARK.8th.Dec.2020.720p.WEBRip.h264-TJ.mp4
Format : MPEG-4
Format profile : Base Media
Codec ID : isom
File size : 2.02 GiB
Duration : 2 h 10 min
Overall bit rate : 2 214 kb/s
Writing application : Lavf57.83.100

Video
ID : 1
Format : AVC
Duration : 2 h 10 min
Bit rate : 2 078 kb/s
Width : 1 280 pixels
Height : 720 pixels
Display aspect ratio : 16:9
Frame rate mode : Constant
Frame rate : 29.970 FPS

 Wrestling Online AEW

 

[/su_expand]

 

 

Watch online

 

Server 1

 

 

 

 

Watch Wrestling Online AEW

 

 

 

 

Server-2

 

 

 

 

watch now

 

 

 

 

Uploaded By Site DX-TV.com

 Wrestling Online AEW

 

Download Links with premium High Speed   

 

 

 

 

dropapk.to

http://shrt10.com/J2AHh0
http://shrt10.com/e5to2aZRn
http://shrt10.com/f5xBnp

 

 

nitroflare.com

http://shrt10.com/rzNfY
http://shrt10.com/KivS7EF
http://shrt10.com/7h1j9X

 

 

rapidgator.net

http://shrt10.com/SA9JvjH6
http://shrt10.com/bB5yg
http://shrt10.com/qeNHd

 

 

uploaded.net

http://shrt10.com/zBrBPTkiO
http://shrt10.com/Eyfrt
http://shrt10.com/FrR0Y81

 

 

uploadgig.com

http://shrt10.com/hJnPwXH
http://shrt10.com/nmsAgNdq
http://shrt10.com/bETOcPa

 

https://dx-tv.com/watch-njpw-strong-2020-12-04-ep18-english-japan/

 

Watch Wrestling Online  

Leave a Reply

Your email address will not be published. Required fields are marked *

This site uses Akismet to reduce spam. Learn how your comment data is processed.