Watch NJPW Strong 2020 12 04 Ep18 English /Japan

 Watch NJPW Strong 2020 12 04 Ep18 English /Japan DX-TV

Watch NJPW Strong

 

 Watch NJPW Strong

 

[su_expand more_text=”Show More Info” less_text=”Close all Info” height=”50″ text_color=”#000000″ link_color=”#e25f8b” link_style=”button” more_icon=”icon: arrow-down” less_icon=”icon: arrow-up”]
Complete name : NJPW.2020.12.04.Strong.Episode.18.ENGLISH.720p.WEB.h264-LATE.mkv
Format : Matroska
Format version : Version 4
File size : 697 MiB
Duration : 47 min 57 s
Overall bit rate : 2 032 kb/s

Watch NJPW Strong

Video
ID : 1
Format : AVC
Duration : 47 min 57 s
Bit rate : 1 904 kb/s
Width : 1 280 pixels
Height : 720 pixels
Display aspect ratio : 16:9
Frame rate mode : Constant
Frame rate : 30.000 FPS
Color space : YUV
Chroma subsampling : 4:2:0
Bit depth : 8 bits
Scan type : Progressive
Bits/(Pixel*Frame) : 0.069
Stream size : 653 MiB (94%)

Watch NJPW Strong

Audio
ID : 2
Format : AAC LC
Format/Info : Advanced Audio Codec
Codec ID : A_AAC-2
Duration : 47 min 57 s
Bit rate : 125 kb/s
Channel(s) : 2 channels
Channel layout : L R
Sampling rate : 44.1 kHz
Frame rate : 43.066 FPS (1024 SPF)
Compression mode : Lossy
Delay relative to video : -23 ms
Stream size : 42.9 MiB (6%)
Language : English
Default : Yes
Forced : No

Watch NJPW Strong

Complete name : NJPW.2020.12.04.Strong.Episode.18.JAPANESE.720p.WEB.h264-LATE.mkv
Format : Matroska
Format version : Version 4
File size : 697 MiB
Duration : 47 min 57 s
Overall bit rate : 2 032 kb/s
Video
ID : 1
Format : AVC
Duration : 47 min 57 s
Bit rate : 1 904 kb/s
Width : 1 280 pixels
Height : 720 pixels
Display aspect ratio : 16:9
Frame rate mode : Constant
Frame rate : 30.000 FPS
Color space : YUV
Chroma subsampling : 4:2:0
Bit depth : 8 bits
Scan type : Progressive
Bits/(Pixel*Frame) : 0.069
Stream size : 653 MiB (94%)

Watch NJPW Strong

Audio
ID : 2
Format : AAC LC
Format/Info : Advanced Audio
Codec ID : A_AAC-2
Duration : 47 min 57 s
Bit rate : 125 kb/s
Channel(s) : 2 channels
Channel layout : L R
Sampling rate : 44.1 kHz
Frame rate : 43.066 FPS (1024 SPF)
Compression mode : Lossy
Delay relative to video : -23 ms
Stream size : 42.9 MiB (6%)
Language : English
Default : Yes
Forced : No

[/su_expand]

Watch online

 

Server 1

 

 

 

 

Watch NJPW Strong

watch now

 

 

 

 

Server-2

 

 

 

 

watch now

Watch NJPW Strong

 

 

 

 

Uploaded By Site DX-TV.com

 

Download Links with premium High Speed   

 

 

 

 

dropapk.to

http://shrt10.com/aDvgTtEc3
http://shrt10.com/E2Mqbv

 

 

nitroflare.com

http://shrt10.com/xMMdx1g
http://shrt10.com/lpAPh2g

 

 

rapidgator.net

http://shrt10.com/IlEznZMQ
http://shrt10.com/2lov4F9

 

 

uploaded.net

http://shrt10.com/XABsEiF
http://shrt10.com/Mqbbeb6Ds

 

 

uploadgig.com

http://shrt10.com/NauO6Nu
http://shrt10.com/C40PwoC3

 

https://dx-tv.com/free-download-wwe-nxt-2019-09-25-part-2-1080p/

You May Also Like

Leave a Reply

Your email address will not be published. Required fields are marked *

This site uses Akismet to reduce spam. Learn how your comment data is processed.